<?xml version="1.0" standalone="no"?>
<!DOCTYPE svg PUBLIC "-//W3C//DTD SVG 1.1//EN" "http://www.w3.org/Graphics/SVG/1.1/DTD/svg11.dtd" >
<svg xmlns="http://www.w3.org/2000/svg" xmlns:xlink="http://www.w3.org/1999/xlink" version="1.1">
<metadata>
Created by FontForge 20201107 at Thu Dec 12 12:36:55 2024
 By 
Copyright (c) 2021 by Areatype. All rights reserved.
</metadata>
<defs>
<font id="MitogenDisplayItalic-Regular" horiz-adv-x="663" >
  <font-face 
    font-family="Mitogen Display Italic"
    font-weight="400"
    font-stretch="normal"
    units-per-em="2048"
    panose-1="2 0 5 5 0 0 0 2 0 4"
    ascent="1638"
    descent="-410"
    x-height="1143"
    cap-height="1636"
    bbox="-2336.57 -1288 4175.12 2488.67"
    underline-thickness="102"
    underline-position="-255"
    unicode-range="U+000D-FB05"
  />
<missing-glyph horiz-adv-x="512" 
 />
    <glyph glyph-name="uniE017" unicode="fj" horiz-adv-x="1224" 
d="M188 987h93l20 156q37 255 208 399t433 141q198 -2 327 -95t109 -222q-11 -86 -76 -137t-141 -51q-57 0 -97.5 31.5t-47.5 90.5q59 29 85.5 80t18.5 98.5t-49.5 83t-105.5 35.5q-152 0 -237.5 -109t-119.5 -345l-20 -156h221q22 0 29.5 -25.5t-5 -51t-38.5 -25.5h-222
l-96 -678q-6 -49 18 -79t70 -30q13 0 15 -24.5t-6 -49t-19 -24.5h-520q-11 0 -12 24.5t8 49t22 24.5q46 0 78.5 30t38.5 79l96 678h-92q-26 0 -31.5 25.5t9 51t36.5 25.5zM348 -293q7 52 59 81.5t117 29.5t107 -27.5t35 -77.5q-6 -53 15.5 -89t59.5 -36q55 0 102 46.5
t71 111t21.5 136t-38.5 118.5l109 778q7 49 -16.5 79t-69.5 30q-13 0 -16 23t4.5 47t21.5 28q114 31 197.5 64t201.5 94h35l-160 -1143q-34 -246 -177.5 -382t-367.5 -136q-140 0 -232 66.5t-79 158.5z" />
    <glyph glyph-name="uniE0FC" unicode="ft" horiz-adv-x="1421" 
d="M201 1071h92l8 72q35 252 182 396t367 144q140 0 231 -66t80 -159q-7 -52 -59 -81t-117 -29q-64 0 -106 27t-35 77q6 53 -16 89t-60 36q-97 0 -143.5 -139t-24.5 -367h338q72 34 174 158.5t205 304.5h35l-66 -477h172q18 0 23 -20.5t-6 -41t-29 -20.5h-172l-88 -625
q-23 -162 76 -162q35 0 61 19t44.5 38t35.5 19q18 0 29.5 -11t9.5 -26q-40 -118 -132.5 -180.5t-226.5 -60.5q-115 1 -174.5 82.5t-40.5 210.5l97 690h-381l-107 -762q-6 -49 18 -79t70 -30q13 0 15 -24.5t-6 -49t-19 -24.5h-520q-11 0 -12 24.5t8 49t22 24.5q46 0 78.5 30
t38.5 79l106 762h-92q-31 0 -31 36t25 57q11 9 23 9z" />
    <glyph glyph-name="uniE0FD" unicode="fk" horiz-adv-x="2111" 
d="M201 1071h92l8 72q38 268 179.5 404t381.5 136q90 0 163.5 -30.5t111.5 -83.5q145 47 303 129h35l-156 -1094l532 410q-46 67 -31.5 125t68 97.5t115.5 39.5q56 0 100 -37t62 -113l-424 -329l221 -590q15 -41 51 -73.5t70 -35.5q13 0 15 -24.5t-6 -49t-19 -24.5h-521
q-11 0 -11.5 24.5t8.5 49t22 24.5q37 5 55.5 37.5t3.5 71.5l-139 397l-193 -151l-34 -246q-6 -49 18 -79t70 -30q13 0 14.5 -24.5t-6.5 -49t-19 -24.5h-520q-11 0 -11.5 24.5t8.5 49t22 24.5q46 0 78 30t38 79l158 1126q14 99 -52 174.5t-167 75.5q-168 2 -243 -128.5
t-52 -383.5h303q22 0 29 -25.5t-6 -51t-39 -25.5h-303l-107 -762q-6 -49 18 -79t70 -30q13 0 15 -24.5t-6 -49t-19 -24.5h-520q-11 0 -12 24.5t8 49t22 24.5q46 0 78.5 30t38.5 79l106 762h-92q-31 0 -31 36t25 57q11 9 23 9z" />
    <glyph glyph-name="uniE0FE" unicode="ffh" horiz-adv-x="2865" 
d="M2441 207l84 590q14 102 -27.5 164.5t-123.5 62.5t-146.5 -65t-77.5 -162l-84 -590q-6 -49 18 -79t70 -30q13 0 15 -24.5t-6 -49t-19 -24.5h-520q-11 0 -12 24.5t8 49t22 24.5q46 0 78.5 30t38.5 79l137 975q9 71 15 166t2 110q-7 -52 -59 -81t-117 -29
q-64 0 -106.5 27.5t-35.5 76.5q6 53 -15.5 89t-59.5 36q-236 0 -183 -565q1 -16 2 -23h303q22 0 29.5 -25.5t-5 -51t-38.5 -25.5h-303l-96 -680q-6 -49 18 -79t70 -30q13 0 15 -24.5t-6 -49t-19 -24.5h-521q-11 0 -11.5 24.5t8.5 49t22 24.5q46 0 78.5 30t38.5 79l96 680
h-445l-96 -680q-6 -49 18 -79t70 -30q13 0 15 -24.5t-6 -49t-19 -24.5h-520q-11 0 -12 24.5t8 49t22 24.5q46 0 78.5 30t38.5 79l96 680h-92q-26 0 -31.5 25.5t9 51t36.5 25.5h93l26 195q43 301 187.5 461.5t371.5 160.5q141 0 232.5 -66.5t79.5 -158.5q-7 -52 -59.5 -81.5
t-117.5 -29.5q-63 0 -105.5 27.5t-35.5 77.5q7 52 -14.5 88.5t-59.5 36.5q-40 0 -72.5 -20t-54 -50.5t-36.5 -78t-23.5 -91.5t-12 -103t-4 -100.5t2 -95.5t4 -76.5t4.5 -54.5l-6 -41h444l21 154q35 252 182 396t367 144q94 0 175.5 -36.5t116.5 -94.5q144 43 349 146h34
l-96 -684q60 80 147.5 125t182.5 45q189 0 268 -98.5t51 -299.5l-82 -579q-6 -49 18 -79t70 -30q13 0 15 -24.5t-6 -49t-19 -24.5h-520q-11 0 -12 24.5t8 49t22 24.5q46 0 78.5 30t38.5 79z" />
    <glyph glyph-name="uniE0FF" unicode="ffk" horiz-adv-x="2922" 
d="M2382 98q38 5 56 37t3 72l-137 397l-195 -151l-34 -246q-6 -49 18 -79t70 -30q13 0 14.5 -24.5t-6.5 -49t-19 -24.5h-520q-11 0 -11.5 24.5t8.5 49t22 24.5q46 0 78 30t38 79l158 1126q14 99 -52 174.5t-167 75.5q-167 1 -242 -128.5t-53 -383.5h303q22 0 29 -25.5
t-6 -51t-39 -25.5h-303l-107 -762q-6 -49 18 -79t70 -30q13 0 15 -24.5t-6 -49t-19 -24.5h-520q-11 0 -12 24.5t8 49t22 24.5q46 0 78.5 30t38.5 79l106 762h-503l-107 -762q-6 -49 18 -79t70 -30q13 0 15 -24.5t-6 -49t-19 -24.5h-520q-11 0 -12 24.5t8 49t22 24.5
q46 0 78.5 30t38.5 79l106 762h-92q-31 0 -31 36t25 57q11 9 23 9h92l8 72q35 252 182 396t367 144q140 0 231.5 -66.5t79.5 -158.5q-7 -52 -59 -81t-117 -29q-64 0 -106 27t-35 77q6 53 -16 89t-60 36q-97 0 -143.5 -139t-24.5 -367h504l8 72q38 268 179.5 404t381.5 136
q90 0 163.5 -30.5t111.5 -83.5q140 44 303 129h35l-156 -1094l532 410q-46 67 -31.5 125t68 97.5t115.5 39.5q56 0 100 -37t62 -113l-422 -329l219 -590q15 -41 51 -73.5t70 -35.5q13 0 15 -24.5t-6 -49t-19 -24.5h-521q-11 0 -11.5 24.5t8.5 49t22 24.5z" />
    <glyph glyph-name="uniE1C5" unicode="fb" horiz-adv-x="2041" 
d="M1427 -20q-133 0 -208 69l-15 -49h-381q-11 0 -11.5 24.5t8.5 49t22 24.5q46 0 78 30t38 79l158 1126q14 99 -52 174.5t-167 75.5q-169 1 -243.5 -128.5t-51.5 -383.5h303q22 0 29 -25.5t-6 -51t-39 -25.5h-303l-107 -762q-6 -49 18 -79t70 -30q13 0 15 -24.5t-6 -49
t-19 -24.5h-520q-11 0 -12 24.5t8 49t22 24.5q45 0 78 30t39 79l107 762h-93q-31 0 -31 36t25 57q11 9 23 9h92l8 72q77 540 561 540q89 0 162.5 -30.5t110.5 -83.5q145 46 305 129h35l-97 -682q60 78 147.5 123t180.5 45q194 0 304 -157q100 -141 96 -352
q-4 -221 -121 -401q-136 -210 -373 -271q-88 -23 -187 -23zM1354 831l-90 -645q40 -104 178 -104q136 0 238 158q93 145 115 346q22 204 -45 328q-61 110 -179 110q-74 0 -134.5 -54t-82.5 -139z" />
    <glyph glyph-name="uniE1C6" unicode="ffb" horiz-adv-x="2850" 
d="M2236 -20q-133 0 -208 69l-15 -49h-381q-11 0 -11.5 24.5t8.5 49t22 24.5q46 0 78 30t38 79l158 1126q14 99 -52 174.5t-167 75.5q-167 1 -242 -128.5t-53 -383.5h303q22 0 29 -25.5t-6 -51t-39 -25.5h-303l-107 -762q-6 -49 18 -79t70 -30q13 0 15 -24.5t-6 -49
t-19 -24.5h-520q-11 0 -12 24.5t8 49t22 24.5q46 0 78.5 30t38.5 79l106 762h-503l-107 -762q-6 -49 18 -79t70 -30q13 0 15 -24.5t-6 -49t-19 -24.5h-520q-11 0 -12 24.5t8 49t22 24.5q46 0 78.5 30t38.5 79l106 762h-92q-31 0 -31 36t25 57q11 9 23 9h92l8 72
q35 252 182 396t367 144q140 0 231.5 -66.5t79.5 -158.5q-7 -52 -59 -81t-117 -29q-64 0 -106 27t-35 77q6 53 -16 89t-60 36q-97 0 -143.5 -139t-24.5 -367h504l8 72q38 268 179.5 404t381.5 136q90 0 163.5 -30.5t111.5 -83.5q140 44 303 129h35l-97 -680
q60 77 147.5 121.5t180.5 44.5q194 0 304 -157q100 -141 96 -352q-4 -221 -121 -401q-136 -210 -373 -271q-88 -23 -187 -23zM2163 836l-90 -646v-4q40 -104 178 -104q136 0 238 158q93 145 115 346q22 204 -45 328q-61 110 -179 110q-72 0 -133 -52.5t-84 -135.5z" />
    <glyph glyph-name="uniE1C7" unicode="ffj" horiz-adv-x="1955" 
d="M188 989h93l26 195q44 306 189 464t370 158q137 0 231 -65t81 -160q-7 -52 -59.5 -81.5t-117.5 -29.5q-63 0 -105.5 27.5t-35.5 77.5q8 58 -15 91.5t-59 33.5q-40 0 -72.5 -20t-54 -50.5t-36.5 -78t-23.5 -91.5t-12 -103t-4 -100.5t2 -95.5t4 -76.5t4.5 -54.5l-6 -41h444
l21 154q17 115 59.5 208.5t100 154.5t130 102.5t145.5 59.5t150 18q212 0 333 -93t102 -227q-11 -86 -76.5 -137t-141.5 -51q-57 0 -98.5 31.5t-48.5 90.5q49 24 74.5 61.5t23 76t-23.5 73t-66 56t-102 20.5q-52 0 -95 -14t-72.5 -36t-51.5 -58t-35 -69t-20 -82t-9.5 -84.5
t-1.5 -87.5t3 -80.5t6 -74.5q1 -8 1 -12h303q7 0 9 -2q111 31 192.5 63.5t196.5 92.5h35l-160 -1143q-35 -248 -178.5 -383t-366.5 -135q-137 0 -230.5 65t-80.5 160q7 52 59 81.5t117 29.5q63 0 105.5 -27.5t35.5 -77.5q-7 -58 17 -91.5t59 -33.5q55 0 102 46.5t71 111
t21.5 136t-38.5 118.5l108 778q7 42 -13 75.5t-75 33.5h-303l-96 -680q-5 -43 15 -76t73 -33q13 0 15 -24.5t-6 -49t-19 -24.5h-521q-11 0 -11.5 24.5t8.5 49t22 24.5q53 0 82.5 33.5t34.5 75.5l96 680h-445l-96 -680q-5 -43 15 -76t73 -33q13 0 15 -24.5t-6 -49t-19 -24.5
h-520q-11 0 -12 24.5t8 49t22 24.5q53 0 82.5 33.5t34.5 75.5l96 680h-92q-26 0 -31.5 25.5t9 51t36.5 25.5z" />
    <glyph glyph-name="f_f" unicode="ff" horiz-adv-x="1699" 
d="M188 987h93l26 197q46 322 182 492.5t347 170.5q165 0 263 -78t81 -196q-11 -77 -68 -121.5t-125 -44.5q-54 0 -92.5 31t-42.5 88q36 33 41 85.5t-20.5 92.5t-69.5 39q-53 0 -93.5 -32.5t-63.5 -82t-37.5 -119.5t-19.5 -134.5t-4.5 -138t3 -119t6.5 -87.5l-6 -43h424
l20 156q35 244 181 392t352 148q149 0 243.5 -80t79.5 -194q-11 -77 -67.5 -121.5t-124.5 -44.5q-54 0 -93.5 31t-43.5 88q43 38 49.5 90t-24 89.5t-83.5 37.5q-230 0 -183 -573q1 -12 1 -17v-2h303q22 0 29.5 -25.5t-5 -51t-38.5 -25.5h-303l-97 -678q-6 -49 18 -79t70 -30
q13 0 15 -24.5t-6 -49t-19 -24.5h-520q-11 0 -12 24.5t8 49t22 24.5q46 0 78.5 30t38.5 79l96 678h-424l-96 -678q-6 -49 18 -79t70 -30q13 0 15 -24.5t-6 -49t-19 -24.5h-520q-11 0 -12 24.5t8 49t22 24.5q46 0 78.5 30t38.5 79l96 678h-92q-26 0 -31.5 25.5t9 51
t36.5 25.5z" />
    <glyph glyph-name="fi" unicode="fi" horiz-adv-x="1349" 
d="M188 987h93l20 156q35 248 195 395.5t393 147.5q205 0 328.5 -91t103.5 -229q-11 -86 -76 -137t-141 -51q-57 0 -99 31.5t-49 90.5q49 24 75 61.5t23.5 76t-23.5 73t-66 56t-103 20.5q-67 0 -117.5 -23.5t-81.5 -55t-50 -89.5t-27 -99t-8 -114.5t2 -105t7 -97.5
q1 -10 1 -14v-2h241q22 0 29.5 -25.5t-5 -51t-38.5 -25.5h-242l-96 -678q-6 -49 18 -79t70 -30q13 0 15 -24.5t-6 -49t-19 -24.5h-520q-11 0 -12 24.5t8 49t22 24.5q46 0 78.5 30t38.5 79l96 678h-92q-26 0 -31.5 25.5t9 51t36.5 25.5zM926 207l80 571q7 49 -16.5 79
t-69.5 30q-13 0 -16 23t4.5 47t21.5 28q130 38 212.5 70.5t186.5 87.5h35l-131 -936q-6 -49 18 -79t70 -30q13 0 15 -24.5t-6 -49t-19 -24.5h-520q-11 0 -12 24.5t8 49t22 24.5q46 0 78.5 30t38.5 79z" />
    <glyph glyph-name="fl" unicode="fl" horiz-adv-x="1431" 
d="M188 989h93l20 154q35 252 182 396t367 144q94 0 176 -36.5t117 -94.5q142 42 348 146h35l-211 -1491q-6 -49 18 -79t70 -30q13 0 15 -24.5t-6 -49t-19 -24.5h-521q-11 0 -11.5 24.5t8.5 49t22 24.5q46 0 78.5 30t38.5 79l137 975q9 70 14.5 165.5t1.5 110.5
q-7 -52 -59 -81t-117 -29q-64 0 -106 27t-35 77q6 53 -16 89t-60 36q-235 0 -182 -564q1 -17 2 -24h303q22 0 29.5 -25.5t-5 -51t-38.5 -25.5h-304l-96 -680q-6 -49 18 -79t70 -30q13 0 15 -24.5t-6 -49t-19 -24.5h-520q-11 0 -12 24.5t8 49t22 24.5q46 0 78.5 30t38.5 79
l96 680h-92q-26 0 -31.5 25.5t9 51t36.5 25.5z" />
    <glyph glyph-name="f_f_i" unicode="ffi" horiz-adv-x="2080" 
d="M188 989h93l26 195q46 322 182 492.5t347 170.5q165 0 263 -78t81 -196q-11 -77 -68 -121.5t-125 -44.5q-54 0 -92.5 31t-42.5 88q36 33 41 85.5t-20.5 92.5t-69.5 39q-53 0 -93.5 -32.5t-63.5 -82t-37.5 -119.5t-19.5 -134.5t-4.5 -138t3 -119t6.5 -87.5l-6 -41h424
l20 154q35 247 194.5 395t391.5 148q206 0 329.5 -91t104.5 -229q-11 -86 -76.5 -137t-140.5 -51q-58 0 -99 31.5t-48 90.5q41 20 65.5 50t30 61.5t-5 63.5t-34.5 57t-63.5 40t-87.5 15q-67 0 -117.5 -23.5t-81.5 -55t-50 -89.5t-27 -99t-8 -114.5t2 -105t7 -97.5
q1 -10 1 -14h242q22 0 29 -25.5t-5.5 -51t-38.5 -25.5h-241l-97 -680q-6 -49 18 -79t70 -30q13 0 15 -24.5t-6 -49t-19 -24.5h-520q-11 0 -12 24.5t8 49t22 24.5q46 0 78.5 30t38.5 79l96 680h-424l-96 -680q-6 -49 18 -79t70 -30q13 0 15 -24.5t-6 -49t-19 -24.5h-520
q-11 0 -12 24.5t8 49t22 24.5q46 0 78.5 30t38.5 79l96 680h-92q-26 0 -31.5 25.5t9 51t36.5 25.5zM1964 207q-6 -49 18 -79t70 -30q13 0 15 -24.5t-6 -49t-19 -24.5h-520q-11 0 -12 24.5t8 49t22 24.5q46 0 78.5 30t38.5 79l80 571q7 49 -16.5 79t-69.5 30q-13 0 -16 23
t4.5 47t21.5 28q130 38 212.5 70.5t186.5 87.5h35z" />
    <glyph glyph-name="f_f_l" unicode="ffl" horiz-adv-x="2183" 
d="M188 989h93l26 195q43 301 187.5 461.5t371.5 160.5q141 0 232.5 -66.5t79.5 -158.5q-7 -52 -59.5 -81.5t-117.5 -29.5q-63 0 -105.5 27.5t-35.5 77.5q7 52 -14.5 88.5t-59.5 36.5q-40 0 -72.5 -20t-54 -50.5t-36.5 -78t-23.5 -91.5t-12 -103t-4 -100.5t2 -95.5t4 -76.5
t4.5 -54.5l-6 -41h444l21 154q35 252 182 396t367 144q94 0 175.5 -36.5t116.5 -94.5q144 43 349 146h34l-211 -1491q-6 -49 18 -79t70 -30q13 0 15 -24.5t-6 -49t-19 -24.5h-520q-11 0 -12 24.5t8 49t22 24.5q46 0 78.5 30t38.5 79l137 975q9 71 15 166t2 110
q-7 -52 -59 -81t-117 -29q-64 0 -106.5 27.5t-35.5 76.5q6 53 -15.5 89t-59.5 36q-236 0 -183 -565q1 -16 2 -23h303q22 0 29.5 -25.5t-5 -51t-38.5 -25.5h-303l-96 -680q-6 -49 18 -79t70 -30q13 0 15 -24.5t-6 -49t-19 -24.5h-521q-11 0 -11.5 24.5t8.5 49t22 24.5
q46 0 78.5 30t38.5 79l96 680h-445l-96 -680q-6 -49 18 -79t70 -30q13 0 15 -24.5t-6 -49t-19 -24.5h-520q-11 0 -12 24.5t8 49t22 24.5q46 0 78.5 30t38.5 79l96 680h-92q-26 0 -31.5 25.5t9 51t36.5 25.5z" />
    <glyph glyph-name="longs_t" unicode="&#x17f;t" horiz-adv-x="1667" 
d="M358 1536l-90 68q-9 8 -2.5 20t19.5 12h925l25 -22l82 -340q8 -34 -15 -57t-53 -23q-27 0 -35 14q-10 16 -29.5 42.5t-59 71.5t-80 81.5t-91.5 64t-94 27.5h-198q-11 -73 -72 -506h575q22 14 46 36.5t50 53.5t48 59.5t50 71t46 70t45.5 74.5t39 66.5t36.5 63.5t28 50h35
l-76 -545h160q22 0 29.5 -25.5t-5 -51t-38.5 -25.5h-160l-76 -537q-5 -31 -5.5 -55t5 -50.5t24.5 -41.5t52 -15q35 0 61 19t44.5 38t35.5 19t28.5 -9.5t10.5 -27.5q-24 -69 -63.5 -118.5t-89 -75.5t-99.5 -37t-106 -10q-104 2 -169.5 75.5t-45.5 217.5l86 608h-617
q-15 -105 -47 -335t-49 -345q-5 -43 15 -76t73 -33q13 0 15 -24.5t-6 -49t-19 -24.5h-520q-11 0 -12 24.5t8 49t22 24.5q53 0 82.5 33.5t34.5 75.5l96 680h-94q-26 0 -31.5 25.5t9 51t36.5 25.5h95z" />
    <glyph glyph-name=".notdef" horiz-adv-x="512" 
 />
    <glyph glyph-name="uni0000" horiz-adv-x="0" 
 />
    <glyph glyph-name="uni0000" horiz-adv-x="0" 
 />
    <glyph glyph-name="uni000D" unicode="&#xd;" horiz-adv-x="512" 
 />
    <glyph glyph-name="space" unicode=" " horiz-adv-x="512" 
 />
    <glyph glyph-name="exclam" unicode="!" horiz-adv-x="481" 
d="M250 465q3 89 10 261.5t11.5 286.5t4 262t-9.5 261q8 59 70 91t139 32q76 0 127.5 -31t44.5 -86q-53 -152 -100.5 -327t-103.5 -414t-81 -336q-3 -21 -22.5 -33t-42.5 -12q-22 0 -36 11.5t-11 33.5zM233 -20q-92 0 -121 75q-25 68 12 145q38 80 116 102q24 7 49 7
q90 0 119 -75q26 -68 -10 -145q-38 -81 -117 -103q-23 -6 -48 -6z" />
    <glyph glyph-name="quotedbl" unicode="&#x22;" horiz-adv-x="544" 
d="M260 1268l-12 334q0 20 29.5 30t72.5 10t70.5 -10t21.5 -30l-98 -334q-4 -18 -18.5 -27.5t-30.5 -9.5q-35 0 -35 37zM565 1268l-12 334q0 20 29.5 30t72.5 10t71 -10t22 -30l-99 -334q-4 -18 -18.5 -27.5t-30.5 -9.5q-35 0 -35 37z" />
    <glyph glyph-name="numbersign" unicode="#" horiz-adv-x="1372" 
d="M647 993h-297q-34 0 -37 37q-4 37 22 62q14 14 32 14h340l276 526q3 8 21 8q27 0 57.5 -14.5t23.5 -28.5l-258 -491h267l276 526q3 8 21 8q27 0 58 -14.5t24 -28.5l-259 -491h246q27 0 35.5 -28t-6.5 -56.5t-45 -28.5h-289l-166 -315h268q27 0 35.5 -28t-6.5 -56.5
t-45 -28.5h-311l-295 -559q-4 -12 -27 -8q-29 2 -55 15t-18 26l276 526h-268l-295 -559q-4 -12 -27 -8q-29 2 -55.5 15t-18.5 26l277 526h-277q-34 0 -37 37q-4 37 22 62q14 14 32 14h319zM766 993l-164 -315h268l164 315h-268z" />
    <glyph glyph-name="dollar" unicode="$" horiz-adv-x="1261" 
d="M905 1700l-18 -125q145 -10 263 -63t180 -134t50 -170q-13 -87 -86 -134.5t-159 -47.5q-66 0 -109 27.5t-37 74.5l2 2q29 121 -4 205t-119 109l-69 -492q24 -12 73 -37q65 -32 98.5 -49.5t92 -52.5t89.5 -61t70.5 -67.5t57.5 -81t27.5 -92t1.5 -110.5
q-26 -186 -206 -303.5t-439 -117.5l-17 -105q0 -16 -49 -16q-54 0 -51 20l14 107q-151 18 -269.5 80t-178 153.5t-45.5 192.5t87 155t158 54q59 0 97 -27.5t32 -73.5v-2q-28 -144 9.5 -246.5t130.5 -144.5l75 541q-254 129 -349 241.5t-75 259.5q25 172 177 285t374 123
l19 127q0 16 49 16q56 0 53 -20zM705 1006l61 442q-80 -15 -138.5 -74t-68.5 -135q-9 -69 25 -123t121 -110zM752 618l-72 -514q112 -3 200.5 64.5t102.5 165.5q11 82 -42 148t-189 136z" />
    <glyph glyph-name="percent" unicode="%" horiz-adv-x="1562" 
d="M504 907q-174 0 -255 131q-69 112 -43 268.5t132 261.5q112 111 272 111q174 0 255 -131q69 -112 42 -269q-26 -157 -132 -261q-112 -111 -271 -111zM1358 1597l-838 -1591q-3 -8 -22 -8q-27 0 -56.5 14t-21.5 27l835 1593q3 8 21 8q27 0 58 -14.5t24 -28.5zM604 1634
q-105 0 -170.5 -169t-46 -339t122.5 -174q105 -5 173 166t48 343.5t-127 172.5zM1190 -2q-174 0 -255 131q-69 112 -43 268.5t132 261.5q112 111 272 111q174 0 255 -131q69 -112 42 -269q-26 -157 -132 -261q-112 -111 -271 -111zM1290 725q-105 0 -170.5 -169t-46 -339
t122.5 -174q104 -5 172 166t48.5 343.5t-126.5 172.5z" />
    <glyph glyph-name="ampersand" unicode="&#x26;" horiz-adv-x="1411" 
d="M995 420q3 26 19 40.5t35 14.5q22 0 31 -17.5t-1 -54.5q-31 -84 -109 -130t-169 -46q-109 0 -183.5 64.5t-64.5 179.5q5 67 41 132t97.5 119.5t155 90t204.5 39.5q108 4 193.5 34t124 80.5t-0.5 118.5q-17 32 -2 60.5t43 28.5q31 0 47 -31q40 -63 54 -136.5t1 -142
t-67 -122.5t-144 -74q19 -35 25.5 -103.5t-2.5 -132.5q-16 -110 -79.5 -199.5t-156.5 -145.5t-203.5 -86t-226.5 -30q-121 0 -228 33t-189.5 96t-123.5 166t-24 232q22 163 124 297t265 198q-89 37 -131.5 119.5t-26 177.5t71.5 184t170 148.5t262 60.5q237 3 331 -132
q69 -98 39 -228q-26 -115 -111 -182q-64 -51 -140 -51q-45 0 -76.5 14t-45 36.5t-17 50t7 55.5t28 51.5t45.5 39t60 17.5q57 -18 88 29q29 44 9 98q-27 70 -118 86q-22 4 -48 4q-143 0 -229 -112q-73 -95 -70 -215q3 -122 85 -186q60 -46 150 -46q40 0 54 -25t-1.5 -50.5
t-48.5 -25.5q-95 0 -189 -63.5t-157 -162t-78 -200.5q-12 -88 12 -156t75 -109t118 -62t145 -21q110 0 213.5 37.5t178.5 114t86 174.5q13 95 -60 148t-184 51q-125 -1 -202.5 -69t-84.5 -149q-4 -64 41.5 -100.5t108.5 -36.5q57 0 101.5 30t51.5 83z" />
    <glyph glyph-name="quotesingle" unicode="'" horiz-adv-x="239" 
d="M260 1268l-12 334q0 20 29.5 30t72.5 10t70.5 -10t21.5 -30l-98 -334q-4 -18 -18.5 -27.5t-30.5 -9.5q-35 0 -35 37z" />
    <glyph glyph-name="parenleft" unicode="(" horiz-adv-x="559" 
d="M465 -160q-106 53 -181.5 155.5t-114 231.5t-47 281.5t13 306.5t73 306.5t126 281.5t179 231.5t225.5 155.5q31 7 45.5 -11.5t8 -43t-24.5 -31.5q-92 -74 -171 -216.5t-130 -312.5t-78 -360.5t-23.5 -360t42 -312t110.5 -216.5q14 -10 15 -32t-19 -41.5t-49 -12.5z" />
    <glyph glyph-name="parenright" unicode=")" horiz-adv-x="557" 
d="M49 -160q-31 -7 -45.5 11.5t-8 43t24.5 31.5q93 74 171.5 216.5t129.5 312t77.5 360t23 360.5t-42 312.5t-109.5 216.5q-14 10 -15 32t19.5 41.5t49.5 12.5q105 -53 180.5 -155.5t113.5 -231.5t46.5 -281.5t-13.5 -306.5t-73.5 -306.5t-126 -281.5t-178.5 -231.5
t-224 -155.5z" />
    <glyph glyph-name="asterisk" unicode="*" horiz-adv-x="645" 
d="M422 1098l39 157l-127 -125q-10 -10 -25 -10q-30 0 -47.5 36t10.5 58l152 99l-170 -23q-29 -4 -34 33q-5 39 18 66q13 15 30 14l168 -19l-125 99q-24 21 3.5 57.5t58.5 36.5q15 0 22 -10l92 -125l2 160q0 19 19 29.5t43 10.5q25 0 40 -10.5t11 -29.5l-39 -160l129 125
q8 10 23 10q30 0 47.5 -36t-10.5 -58l-152 -99l172 23q27 4 32 -31q6 -39 -16 -67q-14 -16 -32 -15l-168 19l125 -99q24 -21 -3.5 -57.5t-58.5 -36.5q-13 0 -20 10l-94 125l-2 -157q1 -19 -17.5 -30t-42.5 -11q-25 0 -40.5 11t-12.5 30zM469 1288h68l30 29l11 63l-23 31h-66
l-32 -31l-11 -63z" />
    <glyph glyph-name="plus" unicode="+" horiz-adv-x="845" 
d="M444 700l39 279q3 22 26.5 33.5t53.5 11.5q33 0 55 -12t19 -33l-39 -279h279q27 0 34 -38t-9 -76.5t-46 -38.5h-278l-41 -279q-3 -21 -28.5 -33t-57.5 -12q-30 0 -50.5 11.5t-17.5 33.5l41 279h-279q-30 0 -35.5 38.5t12 76.5t44.5 38h278z" />
    <glyph glyph-name="comma" unicode="," horiz-adv-x="413" 
d="M49 -233q44 44 110.5 138.5t24.5 94.5q-51 0 -84.5 42.5t-25.5 96.5q7 73 57.5 121.5t118.5 48.5q67 0 104.5 -47t28.5 -119q-12 -88 -107 -233.5t-174 -198.5q-13 -8 -26 -8q-23 0 -32 19.5t5 44.5z" />
    <glyph glyph-name="hyphen" unicode="-" horiz-adv-x="845" 
d="M858 567h-711q-34 0 -37 37q-4 37 22 62q14 14 32 14h710q27 0 35.5 -28t-6.5 -56.5t-45 -28.5z" />
    <glyph glyph-name="period" unicode="." horiz-adv-x="413" 
d="M201 -20q-92 0 -121 75q-26 68 11 145q38 80 116 102q24 7 49 7q90 0 119 -75q27 -68 -9 -145q-38 -81 -117 -103q-23 -6 -48 -6z" />
    <glyph glyph-name="slash" unicode="/" horiz-adv-x="763" 
d="M979 1690l-858 -1745q-4 -11 -31 -8q-26 2 -52.5 14.5t-19.5 25.5l859 1747q3 9 20 9q28 0 58.5 -14.5t23.5 -28.5z" />
    <glyph glyph-name="zero" unicode="0" horiz-adv-x="1406" 
d="M702 -20q-290 0 -447 213q-135 182 -138 466q-3 278 119 531q127 262 341 390q166 99 361 99q291 0 448 -213q135 -182 137 -466q3 -278 -120 -531q-127 -262 -340 -390q-166 -99 -361 -99zM926 1577q-167 0 -296 -210q-122 -198 -166 -494q-45 -295 12 -511
q56 -215 196 -254q24 -7 51 -8q163 -6 293 200q123 193 172 489.5t-4 515.5q-53 221 -195 263q-30 9 -63 9z" />
    <glyph glyph-name="one" unicode="1" horiz-adv-x="598" 
d="M174 207l150 1065q7 49 -15.5 78.5t-68.5 29.5q-13 0 -16 23t4 47.5t20 28.5q126 36 207.5 67.5t193.5 89.5h33l-201 -1429q-6 -49 18 -79t70 -30q13 0 15 -24.5t-6 -49t-19 -24.5h-520q-11 0 -12 24.5t8 49t22 24.5q46 0 78.5 30t38.5 79z" />
    <glyph glyph-name="two" unicode="2" horiz-adv-x="1273" 
d="M1055 266q26 22 52.5 48.5t42.5 43.5t19 19q50 53 97 53q27 0 36.5 -19.5t-4.5 -48.5l-178 -339l-30 -23h-1022q-22 0 -28 18.5t1 65.5q10 72 37 136t69.5 115t87.5 92t106 80t109.5 67t113.5 64t104 60q359 226 393 557q17 152 -37.5 237t-167.5 85q-114 0 -207 -77.5
t-108 -184.5q-11 -83 -68.5 -128.5t-126.5 -45.5q-68 0 -110 43.5t-31 122.5q14 103 111.5 190t249 136t317.5 46q251 -6 379 -133t100 -342q-25 -193 -183 -345t-495 -306q-151 -72 -238 -134.5t-159 -152.5h768z" />
    <glyph glyph-name="three" unicode="3" horiz-adv-x="1212" 
d="M791 856q253 -16 378 -160q100 -116 82 -271q-17 -156 -146 -274q-167 -154 -445 -169q-29 -2 -58 -2q-163 0 -291 43t-194.5 119t-53.5 169q11 79 67 122.5t124 43.5q69 0 112.5 -45.5t32.5 -128.5q-13 -95 51.5 -158t174.5 -63q149 0 244 127q82 110 86 256
q4 151 -79 241q-76 82 -204 82q-63 0 -85 20.5t3 55.5q172 71 309 234q121 146 146 279q25 134 -68 180q-41 20 -103 20q-123 0 -220.5 -79t-112.5 -189q-11 -80 -67 -124t-124 -44q-70 0 -113 45.5t-32 128.5q22 155 208.5 260t438.5 104q282 -2 406 -139q96 -106 67 -254
q-29 -146 -166 -264q-148 -127 -368 -166z" />
    <glyph glyph-name="four" unicode="4" horiz-adv-x="1353" 
d="M809 1602l-573 -1086h657l129 914q7 49 -15.5 78.5t-68.5 29.5q-13 0 -15.5 24.5t5 49t18.5 24.5h412l-158 -1120h184q13 0 14 -25.5t-8 -51t-20 -25.5h-184l-29 -207q-6 -49 18 -79t70 -30q13 0 15 -24.5t-6 -49t-19 -24.5h-520q-11 0 -12 24.5t8 49t22 24.5
q46 0 78.5 30t38.5 79l29 207h-775q-14 0 -19 14t3 38.5t29 49.5l592 1120q3 9 20 9q27 0 57 -14.5t23 -28.5z" />
    <glyph glyph-name="five" unicode="5" horiz-adv-x="1204" 
d="M1294 1370h-737l-223 -422q156 53 319 53q182 0 329 -64t224.5 -181.5t55.5 -261.5q-34 -228 -223.5 -371t-458.5 -143q-159 0 -284 43.5t-190 119.5t-53 168q11 79 67 122.5t124 43.5q69 0 112.5 -45.5t32.5 -128.5q-13 -95 51 -158t174 -63q129 0 219 97t113 261
q12 98 -18 184t-91 146t-149 94.5t-190 34.5q-83 0 -189 -29q-31 -10 -63 -10q-33 0 -42.5 18.5t7.5 55.5l367 702h753q11 0 17.5 -11t5.5 -26l-27 -192q-3 -15 -13 -26t-20 -11z" />
    <glyph glyph-name="six" unicode="6" horiz-adv-x="1335" 
d="M446 860q83 86 200.5 133t248.5 49q163 1 286.5 -63.5t182 -179t37.5 -254.5q-23 -159 -122 -287.5t-251 -202t-328 -75.5q-149 0 -269 63.5t-195.5 175t-105 270t-3.5 342.5q35 243 150 435t289.5 300.5t379.5 112.5q155 3 285.5 -47.5t201 -137.5t56.5 -187
q-11 -79 -67 -122.5t-124 -43.5q-69 0 -112.5 45.5t-32.5 128.5q15 105 -53.5 183.5t-175.5 78.5q-152 0 -280 -183t-185 -483q-1 -5 -5.5 -21.5t-7.5 -29.5zM711 82q138 4 246 124.5t133 295.5q23 167 -61.5 274t-240.5 109q-131 2 -237 -76t-143 -203q-11 -96 -5 -182
q17 -162 98 -252t210 -90z" />
    <glyph glyph-name="seven" unicode="7" horiz-adv-x="1269" 
d="M696 0h-307q-26 0 -28.5 32t22.5 66l836 1276h-770q-74 -66 -158 -162q-14 -14 -39 -14q-30 0 -46 21.5t1 58.5l178 340l31 22h1034q22 0 23.5 -30t-17.5 -68z" />
    <glyph glyph-name="eight" unicode="8" horiz-adv-x="1298" 
d="M475 838q-255 167 -221 415q26 192 202.5 312t438.5 121q239 1 375.5 -112t111.5 -292q-17 -124 -113 -230.5t-243 -166.5q192 -94 267.5 -197t56.5 -244q-17 -134 -114 -240t-253.5 -165t-343.5 -59q-144 0 -255.5 29t-178 78t-103.5 114t-38.5 136.5t25 146t79 141
t132 123t175.5 90.5zM889 950q65 52 110 120.5t63.5 137.5t15.5 137t-28 120t-74.5 84t-117.5 32q-110 2 -188.5 -69.5t-91.5 -186.5q-15 -115 55.5 -200.5t255.5 -174.5zM1032 360q6 46 -3 86.5t-35.5 74t-56 59.5t-78.5 54t-87.5 47.5t-99 48.5t-97.5 48
q-75 -50 -124.5 -124t-67 -151.5t-8.5 -155.5t43 -138.5t97 -98t144 -36.5q140 2 248 84t125 202z" />
    <glyph glyph-name="nine" unicode="9" horiz-adv-x="1335" 
d="M1122 805q-83 -86 -199.5 -133t-246.5 -49q-163 -1 -287 63.5t-183 179t-38 254.5q17 119 79.5 223.5t155 179t214 118.5t253.5 45q325 0 478.5 -215.5t99.5 -596.5q-37 -262 -150 -462.5t-283 -311t-372 -114.5q-169 -3 -303 45.5t-203 139t-53 202.5q10 72 63 112.5
t119 40.5q70 0 115.5 -46t34.5 -130q-15 -107 56.5 -184.5t186.5 -77.5q155 0 280 193t183 524zM860 1583q-139 -4 -247.5 -124.5t-133.5 -295.5q-22 -167 63 -274t240 -109q129 -2 235 75t144 200q11 92 4 186q-17 162 -97 252t-208 90z" />
    <glyph glyph-name="colon" unicode=":" horiz-adv-x="413" 
d="M301 692q-91 0 -121 75q-26 67 11 145q38 81 116 103q24 7 49 7q90 0 119 -75q27 -68 -9 -146q-38 -81 -117 -103q-23 -6 -48 -6zM201 -20q-92 0 -121 75q-26 68 11 145q38 80 116 102q24 7 49 7q90 0 119 -75q27 -68 -9 -145q-38 -81 -117 -103q-23 -6 -48 -6z" />
    <glyph glyph-name="semicolon" unicode=";" horiz-adv-x="413" 
d="M301 692q-91 0 -121 75q-26 67 11 145q38 81 116 103q24 7 49 7q90 0 119 -75q27 -68 -9 -146q-38 -81 -117 -103q-23 -6 -48 -6zM49 -233q44 44 110.5 138.5t24.5 94.5q-51 0 -84.5 42.5t-25.5 96.5q7 73 57.5 121.5t118.5 48.5q67 0 104.5 -47t28.5 -119
q-12 -88 -107 -233.5t-174 -198.5q-13 -8 -26 -8q-23 0 -32 19.5t5 44.5z" />
    <glyph glyph-name="less" unicode="&#x3c;" horiz-adv-x="763" 
d="M340 633l393 -322q13 -11 14 -31t-8.5 -37.5t-30.5 -28t-46 -3.5l-441 367q-34 23 -29.5 56.5t44.5 53.5l548 377q22 10 44.5 -5t24.5 -41t-26 -54z" />
    <glyph glyph-name="equal" unicode="=" horiz-adv-x="1050" 
d="M1008 752h-752q-30 0 -37.5 28t8.5 56t43 28h752q27 0 36 -28t-5.5 -56t-44.5 -28zM961 426h-752q-30 0 -37 28t9.5 56.5t43.5 28.5h752q27 0 35.5 -28.5t-6.5 -56.5t-45 -28z" />
    <glyph glyph-name="greater" unicode="&#x3e;" horiz-adv-x="763" 
d="M653 643l-393 322q-13 11 -14 31t8.5 37.5t31 28t46.5 3.5l442 -367q34 -23 29 -56.5t-45 -53.5l-549 -377q-22 -10 -44 5t-24 41t25 54z" />
    <glyph glyph-name="question" unicode="?" horiz-adv-x="1181" 
d="M205 1317q14 98 107.5 181.5t239.5 132t308 48.5q237 0 373.5 -100t114.5 -258q-10 -67 -44.5 -133t-83.5 -122t-106 -112t-114 -113t-105.5 -114t-82.5 -125t-42 -137q-3 -21 -32.5 -33t-65.5 -12q-34 0 -56.5 11.5t-19.5 33.5q10 88 56 185t106 182.5t120 169
t106 170.5t56 159q15 109 -37.5 177.5t-150.5 68.5q-112 0 -204 -78t-107 -184q-11 -82 -68 -128t-125 -46t-111 46.5t-32 129.5zM621 -20q-92 0 -121 75q-26 68 11 145q38 80 116 102q24 7 49 7q90 0 119 -75q27 -68 -9 -145q-38 -81 -117 -103q-23 -6 -48 -6z" />
    <glyph glyph-name="at" unicode="@" horiz-adv-x="2009" 
d="M1278 1753q209 1 378.5 -57t279.5 -163.5t159.5 -257t26.5 -331.5q-17 -130 -65.5 -240.5t-114.5 -185.5t-145.5 -128.5t-159.5 -78t-156 -24.5q-94 0 -164.5 39.5t-97.5 111.5q-51 -65 -144.5 -101t-210.5 -36q-166 0 -257.5 65.5t-76.5 174.5q10 69 60 127t119.5 96
t155.5 76.5t163.5 68.5t147 71t102.5 85l4 31q15 109 -13 159t-104 50q-78 -2 -134 -53.5t-66 -133.5q-10 -73 -61.5 -114t-112.5 -41q-58 0 -94 35t-27 96q19 126 163.5 212.5t337.5 86.5q204 0 308.5 -77t85.5 -214l-68 -469q-12 -81 22 -124.5t97 -43.5q52 0 111 31
t114.5 88.5t99 152.5t58.5 209q28 208 -54 369.5t-257 248.5t-414 83q-362 -6 -633 -231q-214 -177 -314 -441q-99 -260 -51 -498q50 -247 242 -379q179 -123 453 -121q87 1 182.5 15t153.5 33q35 12 59 12q25 0 40 -10t16.5 -23.5t-8 -27.5t-28.5 -21q-221 -78 -440 -84
q-396 -9 -619 212q-178 177 -204 457q-25 274 101 546q132 283 382 459q292 205 672 208zM1212 600l50 340q-45 -38 -122.5 -85.5t-132 -80t-101 -83.5t-54.5 -107q-10 -73 38 -116.5t120 -43.5q74 0 132.5 45.5t69.5 130.5z" />
    <glyph glyph-name="A" unicode="A" horiz-adv-x="1550" 
d="M1081 481h-557l-172 -276q-25 -38 -0.5 -72.5t78.5 -34.5q12 -4 11 -25.5t-12.5 -47t-22.5 -25.5h-357q-10 4 -8 25.5t15 47t26 25.5q43 0 77.5 24t71.5 79l766 1231q29 40 12 73t-67 33q-12 4 -11.5 25.5t11 47t21.5 25.5h391l82 -1435q3 -54 24.5 -78.5t65.5 -24.5
q12 -4 10.5 -25.5t-13 -47t-22.5 -25.5h-573q-10 4 -8 25.5t15 47t26 25.5q54 0 97.5 35.5t37.5 75.5zM1036 1303l-448 -719h489z" />
    <glyph glyph-name="B" unicode="B" horiz-adv-x="1396" 
d="M356 1434q7 47 -16.5 75.5t-69.5 28.5q-13 0 -15 24.5t5.5 49t18.5 24.5h765q125 0 220 -36.5t145 -95t60.5 -135.5t-20.5 -154.5t-110.5 -155t-197.5 -135.5q183 -45 258 -187q71 -133 22 -293q-52 -170 -214 -288q-213 -156 -537 -156h-621q-11 0 -11.5 24.5t8.5 49
t22 24.5q46 0 78 30t38 79zM664 1434l-54 -387q-7 -47 17.5 -76t70.5 -29h158q135 0 223 120q76 102 79 231q4 130 -70 196q-51 45 -130 45h-176q-47 0 -78.5 -27t-39.5 -73zM698 102q158 0 268 76t137 184t4.5 216t-129.5 184t-265 76h-133l-88 -629q-6 -47 18 -77t70 -30
h118z" />
    <glyph glyph-name="C" unicode="C" horiz-adv-x="1419" 
d="M1470 535q-85 -248 -297.5 -402t-465.5 -153q-290 2 -447 210q-135 179 -136 455q-2 274 126 526q133 264 359 397q187 111 411 111q108 0 208.5 -38t170.5 -99t107 -142.5t26 -164.5q-10 -68 -72.5 -106.5t-138.5 -38.5t-127.5 37t-42.5 104q12 85 -16 166t-85 130.5
t-124 49.5q-157 0 -293 -175q-127 -165 -182 -406q-60 -259 1 -455q64 -208 247 -261q54 -15 116 -16q160 -3 309.5 85t259.5 251q16 16 39 16q27 0 43.5 -22.5t3.5 -58.5z" />
    <glyph glyph-name="D" unicode="D" horiz-adv-x="1437" 
d="M725 0h-676q-11 0 -11.5 24.5t8.5 49t22 24.5q46 0 78 29t38 76l172 1227q7 49 -16.5 78.5t-69.5 29.5q-13 0 -15 24.5t5.5 49t18.5 24.5q250 0 397.5 1t275.5 1q293 0 452 -209q134 -177 137 -451q3 -268 -120 -511q-126 -251 -340 -373q-163 -94 -356 -94zM735 100
q169 0 301 207q123 192 170 478q47 287 -10 496q-56 209 -198 247q-30 8 -62 8h-156q-46 0 -78 -29.5t-38 -76.5l-172 -1223q-6 -47 18 -77t70 -30h155z" />
    <glyph glyph-name="E" unicode="E" horiz-adv-x="1312" 
d="M584 854l344 66l24 -23l33 -137q-3 -27 -27 -27l-389 21l-77 -547q-6 -47 18 -77t70 -30h221q25 0 54.5 10t60 28t61 39.5t62 49.5t57.5 51.5t53 51t42.5 44t32.5 35t17 19.5q14 14 39 14q31 0 47.5 -21.5t-0.5 -58.5l-178 -339l-31 -23h-1069q-11 0 -11.5 24.5t8.5 49
t22 24.5q46 0 78 29t38 76l172 1227q7 49 -16.5 78.5t-69.5 29.5q-13 0 -15 24.5t5.5 49t18.5 24.5h1028l24 -22l82 -340q8 -34 -14.5 -57t-52.5 -23q-27 0 -35 14q-72 111 -117 166q-133 162 -233 162h-181q-46 0 -78 -29.5t-38 -76.5z" />
    <glyph glyph-name="F" unicode="F" horiz-adv-x="1302" 
d="M569 754l-77 -547q-6 -49 18 -79t70 -30q13 0 14.5 -24.5t-6.5 -49t-19 -24.5h-520q-11 0 -11.5 24.5t8.5 49t22 24.5q46 0 78 30t38 79l172 1223q7 49 -16.5 78.5t-69.5 29.5q-13 0 -15 24.5t5.5 49t18.5 24.5h1069l24 -22l82 -340q8 -34 -15 -57t-53 -23q-26 0 -34 14
q-77 119 -129 180q-127 148 -222 148h-221q-46 0 -78 -29.5t-38 -76.5l-80 -576l344 66l24 -23l33 -137q-3 -27 -27 -27z" />
    <glyph glyph-name="G" unicode="G" horiz-adv-x="1505" 
d="M1126 291l54 375q6 49 -18 78.5t-70 29.5q-13 0 -15 24.5t6 49t19 24.5h487q11 0 12 -24.5t-8 -49t-22 -24.5t-23.5 -2t-18 -6.5t-13.5 -8.5t-10.5 -13t-7 -13.5t-4.5 -16t-3 -15.5t-2.5 -17.5t-1.5 -15.5l-53 -375q-157 -163 -307 -238.5t-318 -75.5q-334 0 -517 219
q-150 180 -162 459q-11 269 110 520q124 256 340 389q186 115 409 115q188 0 329.5 -63.5t210 -176.5t48.5 -255q-6 -50 -65.5 -77.5t-135.5 -27.5q-77 0 -130 29.5t-46 81.5q13 99 -17 187t-93.5 141t-141.5 53q-155 0 -278 -181q-120 -174 -162 -435q-45 -279 24 -494
q74 -228 257 -290q66 -22 143 -21q67 1 126.5 44.5t67.5 96.5z" />
    <glyph glyph-name="H" unicode="H" horiz-adv-x="1501" 
d="M664 1430l-76 -541h575l76 541q7 49 -16.5 78.5t-69.5 29.5q-13 0 -15.5 24.5t5 49t18.5 24.5h520q11 0 12.5 -24.5t-7 -49t-21.5 -24.5q-46 0 -79 -29.5t-40 -78.5l-172 -1223q-6 -49 18 -79t70 -30q13 0 15 -24.5t-6 -49t-19 -24.5h-520q-11 0 -12 24.5t8 49t22 24.5
q46 0 78.5 30t38.5 79l82 579h-576l-81 -579q-6 -49 18 -79t70 -30q13 0 14.5 -24.5t-6.5 -49t-19 -24.5h-520q-11 0 -11.5 24.5t8.5 49t22 24.5q46 0 78 30t38 79l172 1223q7 49 -16.5 78.5t-69.5 29.5q-13 0 -15 24.5t5.5 49t18.5 24.5h520q11 0 12 -24.5t-7.5 -49
t-21.5 -24.5q-46 0 -78.5 -29.5t-39.5 -78.5z" />
    <glyph glyph-name="I" unicode="I" horiz-adv-x="618" 
d="M664 1430l-172 -1223q-6 -49 18 -79t70 -30q13 0 14.5 -24.5t-6.5 -49t-19 -24.5h-520q-11 0 -11.5 24.5t8.5 49t22 24.5q46 0 78 30t38 79l172 1223q7 49 -16.5 78.5t-69.5 29.5q-13 0 -15 24.5t5.5 49t18.5 24.5h520q11 0 12 -24.5t-7.5 -49t-21.5 -24.5
q-46 0 -78.5 -29.5t-39.5 -78.5z" />
    <glyph glyph-name="J" unicode="J" horiz-adv-x="1220" 
d="M426 449q-25 -175 12 -271t129 -96q200 0 256 379l135 969q7 49 -16.5 78.5t-69.5 29.5q-13 0 -15 24.5t5.5 49t18.5 24.5h520q11 0 12 -24.5t-7.5 -49t-21.5 -24.5q-46 0 -78.5 -29.5t-39.5 -78.5l-115 -820q-55 -321 -212 -475.5t-427 -154.5q-221 0 -339 132t-89 343
q7 50 60.5 77t123.5 27t117.5 -29t40.5 -81z" />
    <glyph glyph-name="K" unicode="K" horiz-adv-x="1505" 
d="M49 0q-11 0 -11.5 24.5t8.5 49t22 24.5q46 0 78 30t38 79l172 1223q7 49 -16.5 78.5t-69.5 29.5q-13 0 -15 24.5t5.5 49t18.5 24.5h520q11 0 12 -24.5t-7.5 -49t-21.5 -24.5q-46 0 -78.5 -29.5t-39.5 -78.5l-89 -627l590 534q38 28 45.5 84.5t-17 102t-67.5 45.5
q-13 0 -16 16.5t4.5 33.5t20.5 17h448q13 0 16.5 -13t-3.5 -29t-21 -25l-545 -496l311 -866q14 -37 53 -70t76 -37q11 0 12 -25t-8 -50t-22 -25h-512q-13 0 -15 25t6 50t19 25q35 3 46.5 33t-3.5 74l-215 637l-225 -205l-61 -432q-6 -49 18 -79t70 -30q13 0 14.5 -24.5
t-6.5 -49t-19 -24.5h-520z" />
    <glyph glyph-name="L" unicode="L" horiz-adv-x="1271" 
d="M1077 0h-1028q-11 0 -11.5 24.5t8.5 49t22 24.5q46 0 78 30t38 79l172 1223q7 49 -16.5 78.5t-69.5 29.5q-13 0 -15 24.5t5.5 49t18.5 24.5h520q11 0 12 -24.5t-7.5 -49t-21.5 -24.5q-46 0 -78.5 -29.5t-39.5 -78.5l-172 -1223q-6 -47 18 -77t70 -30h180q25 0 54.5 10
t60 28t61 39.5t62 49.5t57.5 51.5t53 51t42.5 44t32.5 35t17 19.5q14 14 39 14q31 0 47.5 -21.5t-0.5 -58.5l-178 -339z" />
    <glyph glyph-name="M" unicode="M" horiz-adv-x="2136" 
d="M49 0q-11 0 -11.5 24.5t8.5 49t22 24.5q43 0 74.5 24t60.5 79l401 1231q23 40 0.5 73t-72.5 33q-13 0 -15 24.5t5.5 49t18.5 24.5h356q20 0 30 -13t13 -42l147 -1137l560 1137q22 41 35 49q10 6 24 6h362q11 0 12.5 -24.5t-7 -49t-21.5 -24.5q-50 0 -82.5 -33t-21.5 -73
l43 -1231q18 -103 106 -103q13 0 15 -24.5t-6 -49t-19 -24.5h-561q-11 0 -12 24.5t8 49t22 24.5q54 0 93 35.5t28 75.5l-37 1094l-631 -1285q-3 -18 -57 -18t-51 18l-201 1285l-358 -1098q-22 -40 5.5 -73.5t80.5 -33.5q13 0 15 -24.5t-6 -49t-19 -24.5h-357z" />
    <glyph glyph-name="N" unicode="N" horiz-adv-x="1556" 
d="M1585 1432l-192 -1381q-2 -2 -2 -6q-3 -20 -11.5 -32.5t-19.5 -12.5h-252l-614 1286l-172 -1079q-6 -46 21 -77.5t73 -31.5q13 0 15 -24.5t-6 -49t-19 -24.5h-357q-11 0 -11.5 24.5t8.5 49t22 24.5q47 0 86 32.5t45 76.5l198 1225q7 47 -18 76.5t-72 29.5
q-13 0 -15.5 24.5t5 49t18.5 24.5h381l617 -1276l151 1072q6 46 -19.5 76t-72.5 30q-13 0 -15.5 24.5t5 49t18.5 24.5h357q11 0 12 -24.5t-7.5 -49t-21.5 -24.5q-50 0 -89.5 -31t-45.5 -75zM348 1538l8 -2q-2 2 -8 2z" />
    <glyph glyph-name="O" unicode="O" horiz-adv-x="1427" 
d="M713 -20q-290 0 -447 213q-135 182 -139 466q-3 278 120 531q126 262 340 390q166 99 361 99q291 0 448 -213q135 -182 138 -466q3 -278 -120 -531q-127 -261 -340 -390q-166 -99 -361 -99zM938 1577q-168 0 -301 -213q-125 -199 -173 -498q-49 -298 6 -517
q54 -218 193 -258q29 -9 62 -9q167 0 299 212q125 198 174 498q50 298 -4 517t-194 259q-29 9 -62 9z" />
    <glyph glyph-name="P" unicode="P" horiz-adv-x="1437" 
d="M541 555l-49 -352q-6 -47 18 -76t70 -29q13 0 14.5 -24.5t-6.5 -49t-19 -24.5h-520q-11 0 -11.5 24.5t8.5 49t22 24.5q46 0 78 29t38 76l172 1227q7 49 -16.5 78.5t-69.5 29.5q-13 0 -15 24.5t5.5 49t18.5 24.5h661q327 0 500 -163q132 -125 134 -306q3 -179 -121 -333
q-144 -180 -398 -246q-125 -33 -267 -33h-247zM657 655h82q197 0 341 145q120 121 154 287q35 171 -41 294q-93 149 -313 155h-18h-82q-46 0 -78 -29.5t-38 -76.5l-95 -668q-6 -47 18 -77t70 -30z" />
    <glyph glyph-name="Q" unicode="Q" horiz-adv-x="1476" 
d="M227 -184q-35 -11 -51 2q-12 10 -12.5 26t10.5 29q112 135 348 135q-126 40 -215 135t-131.5 219.5t-47.5 271.5t26.5 292.5t101.5 282t167 240.5t233.5 167t291.5 63q291 0 448 -213q134 -182 137 -466q2 -278 -121 -532q-127 -261 -340 -389q-116 -70 -247 -91
q24 -2 64.5 -31.5t79.5 -64t94 -63.5t106 -30q106 -3 209 111q24 27 41 27q12 0 17.5 -13.5t1.5 -36.5q-29 -141 -156 -230t-297 -89q-66 1 -128.5 34t-111.5 80t-96.5 94t-101.5 79.5t-109 31.5q-21 0 -40 -2t-38 -7.5t-30 -8.5t-30.5 -13t-24.5 -12t-26 -15t-22 -13z
M938 1577q-168 0 -301 -213q-125 -199 -173 -498q-49 -298 6 -517q54 -218 193 -258q29 -9 62 -9q167 0 299 212q125 198 174 498q50 298 -4 517t-194 259q-29 9 -62 9z" />
    <glyph glyph-name="R" unicode="R" horiz-adv-x="1515" 
d="M270 1538q-13 0 -15 24.5t5.5 49t18.5 24.5h661q145 0 263 -31.5t193.5 -84t122.5 -123t58 -147.5t-9.5 -158t-70 -153.5t-133 -135.5t-190.5 -103q0 -2 10 -45t17 -70.5t21.5 -82t28.5 -93t33.5 -90t40.5 -86.5t45.5 -67.5t52.5 -49t58 -16.5q11 0 11.5 -25t-8.5 -50
t-22 -25q-258 0 -401 182q-82 104 -159 324q-6 17 -46 135q-18 -2 -55 -2h-248l-61 -436q-6 -47 18 -76t70 -29q13 0 14.5 -24.5t-6.5 -49t-19 -24.5h-520q-11 0 -11.5 24.5t8.5 49t22 24.5q46 0 78 29t38 76l172 1227q7 49 -16.5 78.5t-69.5 29.5zM664 1430l-82 -584
q-6 -47 18 -77t70 -30h82q201 0 345 137q116 110 145 260q30 155 -50 265q-100 135 -330 135h-82q-46 0 -78 -29.5t-38 -76.5z" />
    <glyph glyph-name="S" unicode="S" horiz-adv-x="1282" 
d="M1319 403q-26 -187 -205.5 -305t-439.5 -118q-176 1 -319.5 58.5t-218 154.5t-58.5 210q14 105 88 160t160 55q60 0 96.5 -26t30.5 -72v-2q-17 -111 -4.5 -190t53 -129.5t92.5 -73.5t113 -23q103 0 187 61t97 159q8 57 -14 110t-66 97t-103 87t-125 85.5t-131.5 87
t-123.5 96t-100 107.5t-61.5 127.5t-8.5 150.5q26 181 190.5 295t399.5 114q158 1 292 -49t206.5 -134.5t58.5 -180.5q-13 -90 -87 -138.5t-161 -48.5q-65 0 -107 27.5t-36 75.5l2 2q28 114 3 187t-76 107t-118 34q-85 0 -155.5 -53.5t-81.5 -141.5q-8 -56 14 -109.5
t66 -98.5t102.5 -89t124.5 -88t131.5 -89.5t123 -98.5t99.5 -110t61.5 -129t8.5 -151z" />
    <glyph glyph-name="T" unicode="T" horiz-adv-x="1548" 
d="M424 1636h1159l25 -22l82 -340q8 -34 -15 -57t-53 -23q-27 0 -35 14q-72 111 -117 166q-133 162 -233 162h-94l-187 -1329q-6 -49 18 -79t70 -30q13 0 15 -24.5t-6 -49t-19 -24.5h-520q-11 0 -12 24.5t8 49t22 24.5q46 0 78.5 30t38.5 79l187 1329h-95q-25 0 -54.5 -10
t-60 -28t-61 -39.5t-62 -49.5t-57.5 -51.5t-53 -51t-42.5 -44t-32.5 -35t-17 -19.5q-14 -14 -39 -14q-31 0 -48 23t1 57l180 340z" />
    <glyph glyph-name="U" unicode="U" horiz-adv-x="1560" 
d="M539 608q-35 -254 40 -390t252 -136q206 0 347.5 141.5t173.5 380.5l114 828q6 46 -18.5 76t-71.5 30q-13 0 -15.5 24.5t5 49t18.5 24.5h357q11 0 12 -24.5t-7.5 -49t-21.5 -24.5q-50 0 -89.5 -31t-45.5 -75l-121 -865q-47 -277 -227 -433t-455 -157q-379 -3 -510 256
q-72 139 -38 418l108 779q7 49 -16.5 78.5t-69.5 29.5q-13 0 -15.5 24.5t5 49t18.5 24.5h520q11 0 12.5 -24.5t-7 -49t-21.5 -24.5q-46 0 -79 -29.5t-40 -78.5z" />
    <glyph glyph-name="V" unicode="V" horiz-adv-x="1562" 
d="M1591 1436l-678 -1381q-14 -29 -26 -42t-33 -13h-205l-272 1436q-20 102 -107 102q-13 0 -15 24.5t5.5 49t18.5 24.5h573q11 0 12.5 -24.5t-7 -49t-21.5 -24.5q-54 0 -93 -35.5t-30 -75.5l215 -1105l540 1110q22 38 -7 72t-83 34q-13 0 -15.5 24.5t5 49t18.5 24.5h357
q11 0 12 -24.5t-7.5 -49t-21.5 -24.5q-43 0 -74.5 -23.5t-60.5 -78.5z" />
    <glyph glyph-name="W" unicode="W" horiz-adv-x="2304" 
d="M2333 1436l-650 -1381q-15 -31 -27.5 -43t-31.5 -12h-205l-135 989l-364 -934q-23 -55 -60 -55h-205l-278 1436q-20 102 -107 102q-13 0 -15 24.5t5.5 49t18.5 24.5h573q11 0 12.5 -24.5t-7 -49t-21.5 -24.5q-54 0 -93 -35.5t-30 -75.5l209 -1067l333 836l-32 240
q-15 102 -107 102q-13 0 -15.5 24.5t5 49t18.5 24.5h574q11 0 12 -24.5t-7.5 -49t-21.5 -24.5q-54 0 -92.5 -35.5t-29.5 -75.5l137 -1089l514 1094q22 38 -7 72t-83 34q-13 0 -15.5 24.5t5 49t18.5 24.5h356q11 0 12.5 -24.5t-7 -49t-21.5 -24.5q-43 0 -74.5 -23.5
t-60.5 -78.5z" />
    <glyph glyph-name="X" unicode="X" horiz-adv-x="1552" 
d="M1636 1522l-577 -627l430 -766q20 -33 39 -33q11 0 12 -24t-7.5 -48t-21.5 -24h-532q-11 0 -12 24.5t8 49t22 24.5q47 0 64 41t-14 82l-271 486l-403 -447q-52 -60 -34.5 -111t89.5 -51q13 0 15 -24.5t-6 -49t-19 -24.5h-379q-11 0 -12 24.5t8 49t22 24.5q18 0 37 19
l629 684l-395 706q-20 33 -37 33q-11 0 -13 24t6 48t21 24h529q11 0 12 -24.5t-7.5 -49t-21.5 -24.5q-47 0 -63.5 -41t14.5 -82l238 -424l352 387q51 60 34 111t-89 51q-13 0 -15.5 24.5t5 49t18.5 24.5l379 -2q11 0 12.5 -24t-6.5 -48t-21 -24q-21 0 -39 -18z" />
    <glyph glyph-name="Y" unicode="Y" horiz-adv-x="1499" 
d="M623 207l53 371l-324 858q-19 48 -43 75t-49 27q-13 0 -15.5 24.5t5 49t18.5 24.5h574q11 0 12 -24.5t-7.5 -49t-21.5 -24.5q-54 0 -93 -35.5t-30 -75.5l246 -700l469 705q22 38 -8 72t-84 34q-13 0 -15.5 24.5t5 49t18.5 24.5h357q11 0 12 -24.5t-7.5 -49t-21.5 -24.5
q-26 0 -74 -39t-73 -80l-539 -807l-57 -405q-6 -49 18 -79t70 -30q13 0 15 -24.5t-6 -49t-19 -24.5h-521q-11 0 -11.5 24.5t8.5 49t22 24.5q46 0 78.5 30t38.5 79z" />
    <glyph glyph-name="Z" unicode="Z" horiz-adv-x="1427" 
d="M621 102h305q22 0 49 8.5t53 22t55.5 34t55.5 41t54 46t49.5 46t45 44.5t36.5 38t27 29.5t15 16.5q14 14 39 14q31 0 47.5 -21.5t-0.5 -58.5l-178 -339l-31 -23h-1190q-14 0 -22 13t0 37.5t35 49.5l1013 1330q6 47 -18 75.5t-70 28.5h-221q-22 0 -49 -8.5t-53 -22
t-56 -34t-55.5 -41t-54.5 -46t-50 -46t-45 -45t-36.5 -37.5t-27.5 -30l-15 -16q-14 -14 -39 -14q-31 0 -48 23t1 57l180 340l29 22h1110q12 0 19 -11t7 -26q-6 -37 -39 -63l-1016 -1327q-6 -47 18.5 -77t70.5 -30z" />
    <glyph glyph-name="bracketleft" unicode="[" horiz-adv-x="536" 
d="M735 1688h-225l-246 -1751h221q13 0 15 -25.5t-6 -51.5t-19 -26h-477l274 1956h473q13 0 15 -25.5t-6 -51t-19 -25.5z" />
    <glyph glyph-name="backslash" unicode="\" horiz-adv-x="763" 
d="M627 -55l-367 1745q-3 14 31 28.5t61 14.5q19 0 19 -9l366 -1747q3 -8 -11 -17.5t-34.5 -15.5t-38.5 -7q-22 -3 -26 8z" />
    <glyph glyph-name="bracketright" unicode="]" horiz-adv-x="536" 
d="M31 -63h225l246 1751h-221q-13 0 -15 25.5t6 51t19 25.5h477l-274 -1956h-474q-13 0 -14.5 26t6.5 51.5t19 25.5z" />
    <glyph glyph-name="asciicircum" unicode="^" horiz-adv-x="585" 
d="M238 1436l206 200h156l154 -200q14 -20 6.5 -36t-25.5 -16q-12 0 -26 11l-197 159l-242 -159q-32 -22 -46.5 -4.5t14.5 45.5z" />
    <glyph glyph-name="underscore" unicode="_" horiz-adv-x="927" 
d="M834 -113h-773q-34 0 -37 37q-4 37 22 62q14 14 32 14h772q27 0 35.5 -28t-6.5 -56.5t-45 -28.5z" />
    <glyph glyph-name="grave" unicode="`" horiz-adv-x="356" 
d="M467 1325l-227 141q-16 16 -0.5 45t48 51.5t46.5 6.5l182 -185q21 -19 -0.5 -48t-48.5 -11z" />
    <glyph glyph-name="a" unicode="a" horiz-adv-x="1269" 
d="M758 1184q224 0 339 -84.5t93 -235.5l-72 -514q0 -1 -3 -17.5t-4 -27.5t-2.5 -29.5t0.5 -32t6 -26.5t13 -20t23 -7q25 0 53.5 37t50.5 37q42 0 33 -63q-12 -86 -93.5 -150.5t-178.5 -64.5q-75 0 -131 39t-76 108q-57 -69 -160 -108t-229 -39q-182 0 -282 72t-83 190
q9 65 51 121t104 96.5t136.5 76.5t154.5 68t151 63t132 69.5t93 80.5l6 35q17 120 -13.5 174.5t-115.5 54.5q-88 -1 -149 -58t-73 -146q-11 -81 -67 -125.5t-123 -44.5q-63 0 -102 38t-29 105q19 138 176.5 233t370.5 95zM807 313l51 375q-49 -42 -133.5 -94.5t-144.5 -89
t-110.5 -92t-59.5 -117.5q-11 -80 42 -127t132 -47q80 0 145 50t78 142z" />
    <glyph glyph-name="b" unicode="b" horiz-adv-x="1257" 
d="M643 -20q-133 0 -207 71l-16 -51h-381q-11 0 -12 24.5t8 49t22 24.5q46 0 78.5 30t38.5 79l158 1126q7 49 -16.5 79t-69.5 30q-13 0 -16 23t4.5 47t21.5 28q114 31 197.5 64t203.5 94h35l-96 -682q60 78 147.5 123t180.5 45q194 0 305 -157q99 -141 96 -351
q-4 -222 -121 -402q-137 -210 -375 -271q-88 -23 -186 -23zM569 831l-90 -641v-4q40 -104 178 -104q136 0 238 158q93 145 115 346q22 204 -45 328q-61 110 -179 110q-74 0 -134.5 -54t-82.5 -139z" />
    <glyph glyph-name="c" unicode="c" horiz-adv-x="1114" 
d="M1067 338q27 31 47 31q17 0 28 -11t9 -26q-51 -151 -215 -251.5t-361 -100.5q-253 0 -386 172q-112 144 -106 358q6 213 123 390q130 196 344 261q91 27 191 27q110 0 203 -32t151.5 -84t87 -117t19.5 -130q-10 -73 -59 -114t-109 -41q-69 0 -112.5 54.5t-30.5 152.5
q13 87 -20 145t-105 55q-88 -2 -173.5 -93.5t-128 -220.5t-46 -257.5t78.5 -218.5t238 -90q106 0 194.5 39t137.5 102z" />
    <glyph glyph-name="d" unicode="d" horiz-adv-x="1228" 
d="M926 1057l37 276q7 49 -16.5 79t-69.5 30q-13 0 -16 23t4.5 47t21.5 28q114 31 197.5 64t203.5 94h35l-211 -1491q-6 -49 18 -79t70 -30q13 0 15 -24.5t-6 -49t-19 -24.5h-381l-4 31q-85 -51 -195 -51q-270 0 -406.5 158t-101.5 433q22 169 104.5 310t204 222t255.5 81
q81 0 149 -33.5t111 -93.5zM797 145l108 779q-19 46 -58.5 73t-88.5 27q-145 0 -246 -161q-91 -146 -109 -348q-17 -202 51 -325q60 -108 171 -108q106 0 172 63z" />
    <glyph glyph-name="e" unicode="e" horiz-adv-x="1114" 
d="M428 602q-17 -190 76.5 -298.5t275.5 -108.5q75 0 156 40.5t131 102.5q27 31 45 31t29.5 -11t9.5 -26q-51 -151 -213 -251.5t-354 -100.5q-255 0 -390 171q-112 143 -107 355q6 212 125 389q133 198 355 264q96 29 203 29q131 0 233 -64t151.5 -174.5t31.5 -240.5
q-15 -107 -131 -107h-627zM442 705h424q28 189 -5 282t-124 90q-86 -3 -170.5 -110t-124.5 -262z" />
    <glyph glyph-name="f" unicode="f" horiz-adv-x="968" 
d="M201 1071h92l8 72q35 252 182 396t367 144q139 0 230.5 -66.5t80.5 -158.5q-7 -52 -59 -81t-117 -29q-64 0 -106 27t-35 77q6 53 -16 89t-60 36q-97 0 -143.5 -139t-24.5 -367h303q22 0 29 -25.5t-6 -51t-39 -25.5h-303l-107 -762q-6 -49 18 -79t70 -30q13 0 15 -24.5
t-6 -49t-19 -24.5h-520q-11 0 -12 24.5t8 49t22 24.5q46 0 78.5 30t38.5 79l106 762h-92q-31 0 -31 36t25 57q11 9 23 9z" />
    <glyph glyph-name="g" unicode="g" horiz-adv-x="1120" 
d="M743 1184q56 141 158.5 221.5t224.5 77.5q114 -2 153 -76t-4.5 -147.5t-131.5 -73.5q-39 0 -62 20q11 42 -24 69t-86 15q-82 -19 -142 -116q188 -24 280 -175q83 -135 58 -314q-25 -184 -152 -315q-162 -167 -419 -169h-12q-210 3 -326 104q-36 -29 -39 -47
q-5 -33 31.5 -54.5t100 -31t144.5 -19.5t166 -18.5t165 -29.5t140.5 -50.5t92.5 -83.5t22 -127q-22 -160 -189.5 -258t-416.5 -98q-242 0 -376.5 93t-112.5 247q7 52 59 81.5t117 29.5q64 0 106.5 -27.5t36.5 -77.5q-38 -103 12 -174.5t160 -71.5q113 0 196 57.5t95 145.5
q5 33 -17 55t-63 34.5t-95 21t-113.5 16.5t-118.5 19t-110.5 31.5t-88.5 49.5t-54 78t-6 113q15 74 109 147q-58 75 -74.5 169t5 184.5t76 177t130.5 152t176.5 105.5t206.5 40h12zM713 1081q-123 0 -207.5 -194.5t-63 -389t155.5 -194.5q133 0 212 194.5t52.5 389
t-149.5 194.5z" />
    <glyph glyph-name="h" unicode="h" horiz-adv-x="1280" 
d="M174 207l158 1126q7 49 -16.5 79t-69.5 30q-13 0 -16 23t4.5 47t21.5 28q114 31 197.5 64t203.5 94h35l-96 -684q60 80 147.5 125t182.5 45q189 0 268 -98.5t51 -299.5l-82 -579q-6 -49 18 -79t70 -30q13 0 15 -24.5t-6 -49t-19 -24.5h-520q-11 0 -12 24.5t8 49t22 24.5
q46 0 78.5 30t38.5 79l84 590q14 101 -28 164t-124 63t-145.5 -65t-77.5 -162l-84 -590q-6 -49 18 -79t70 -30q13 0 15 -24.5t-6 -49t-19 -24.5h-520q-11 0 -12 24.5t8 49t22 24.5q46 0 78.5 30t38.5 79z" />
    <glyph glyph-name="i" unicode="i" horiz-adv-x="587" 
d="M453 1536q78 0 125 -44t38 -110q-9 -63 -67.5 -106t-136.5 -43q-82 0 -128.5 42t-37.5 107q7 61 69.5 107.5t137.5 46.5zM164 207l80 571q7 49 -16.5 79t-69.5 30q-13 0 -16 23t4.5 47t21.5 28q129 38 211 70.5t188 87.5h35l-131 -936q-6 -49 18 -79t70 -30
q13 0 15 -24.5t-6 -49t-19 -24.5h-520q-11 0 -12 24.5t8 49t22 24.5q46 0 78.5 30t38.5 79z" />
    <glyph glyph-name="j" unicode="j" horiz-adv-x="483" 
d="M463 1536q78 0 125.5 -44t38.5 -110q-9 -63 -68 -106t-137 -43q-82 0 -128.5 42t-37.5 107q7 61 69.5 107.5t137.5 46.5zM-403 -293q7 52 59 81.5t117 29.5t106.5 -27.5t34.5 -77.5q-6 -53 16 -89t60 -36q55 0 102 46.5t70.5 111t21 136t-38.5 118.5l109 778
q7 49 -16.5 79t-69.5 30q-13 0 -16 23t4.5 47t21.5 28q129 38 212 70.5t188 87.5h34l-159 -1143q-34 -246 -177.5 -382t-367.5 -136q-141 0 -232.5 66.5t-78.5 158.5z" />
    <glyph glyph-name="k" unicode="k" horiz-adv-x="1329" 
d="M174 207l158 1126q7 49 -16.5 79t-69.5 30q-13 0 -16 23t4.5 47t21.5 28q114 31 197.5 64t203.5 94h35l-155 -1094l532 410q-46 67 -31.5 125t68 97.5t115.5 39.5q56 0 99.5 -37t61.5 -113l-424 -329l222 -590q18 -41 52.5 -73.5t67.5 -35.5q13 0 15 -24.5t-6 -49
t-19 -24.5h-520q-11 0 -12 24.5t8 49t22 24.5q37 5 56 37.5t4 71.5l-139 397l-193 -151l-35 -246q-6 -49 18 -79t70 -30q13 0 15 -24.5t-6 -49t-19 -24.5h-520q-11 0 -12 24.5t8 49t22 24.5q46 0 78.5 30t38.5 79z" />
    <glyph glyph-name="l" unicode="l" 
d="M692 1698l-190 -1348q0 -3 -2.5 -17.5t-4.5 -27t-3.5 -30.5t-1 -31.5t3.5 -26.5t10 -20t18 -7q26 0 45.5 18.5t36 37t33.5 18.5q18 0 29.5 -11t9.5 -26q-15 -102 -95 -171.5t-182 -69.5q-114 0 -174 81.5t-41 211.5l148 1054q7 49 -16.5 79t-69.5 30q-13 0 -16 23t4.5 47
t21.5 28q128 38 210.5 70.5t190.5 87.5h35z" />
    <glyph glyph-name="m" unicode="m" horiz-adv-x="2025" 
d="M174 207l80 571q7 49 -16.5 79t-69.5 30q-13 0 -16 23t4.5 47t21.5 28q115 31 198.5 64t201.5 94h34l-16 -127q60 78 147.5 123t180.5 45q279 0 319 -217q57 100 155.5 158.5t207.5 58.5q189 0 268 -98.5t51 -299.5l-61 -436q0 -3 -2.5 -17.5t-4.5 -27t-3.5 -30.5
t-1 -31.5t3.5 -26.5t10 -20t18 -7q26 0 45.5 18.5t36 37t33.5 18.5q18 0 29.5 -11t9.5 -26q-15 -102 -95 -171.5t-182 -69.5q-114 0 -174 81.5t-41 211.5l74 518q14 101 -28 164t-124 63q-83 -1 -146 -65.5t-77 -161.5q-2 -4 -2 -11l-82 -579q-6 -49 18 -79t70 -30
q13 0 15 -24.5t-6 -49t-19 -24.5h-520q-11 0 -12 24.5t8 49t22 24.5q46 0 78.5 30t38.5 79l84 590q13 102 -29.5 165.5t-122.5 61.5q-74 0 -134.5 -54t-82.5 -139l-88 -624q-6 -49 18 -79t70 -30q13 0 15 -24.5t-6 -49t-19 -24.5h-520q-11 0 -12 24.5t8 49t22 24.5
q46 0 78.5 30t38.5 79z" />
    <glyph glyph-name="n" unicode="n" horiz-adv-x="1343" 
d="M174 207l80 571q7 49 -16.5 79t-69.5 30q-13 0 -16 23t4.5 47t21.5 28q115 31 198.5 64t201.5 94h34l-16 -127q60 78 147.5 123t180.5 45q189 0 268 -98.5t51 -299.5l-61 -436q0 -3 -2.5 -17.5t-4.5 -27t-3.5 -30.5t-1 -31.5t3.5 -26.5t10 -20t18 -7q26 0 45.5 18.5
t36 37t33.5 18.5q18 0 29.5 -11t9.5 -26q-15 -101 -95.5 -171t-181.5 -70q-114 0 -174 81.5t-41 211.5l74 518q13 102 -29.5 165.5t-122.5 61.5q-74 0 -134.5 -54t-82.5 -139l-88 -624q-6 -49 18 -79t70 -30q13 0 15 -24.5t-6 -49t-19 -24.5h-520q-11 0 -12 24.5t8 49
t22 24.5q46 0 78.5 30t38.5 79z" />
    <glyph glyph-name="o" unicode="o" horiz-adv-x="1142" 
d="M565 -20q-261 0 -389 176q-106 146 -90 364q16 212 138 388q135 193 340 253q81 23 167 23q260 0 392 -175q109 -145 97 -361q-12 -211 -133 -388q-134 -194 -345 -255q-85 -25 -177 -25zM584 82q127 0 220 169q88 159 108 382q19 221 -43 347q-50 101 -140 101
q-126 0 -221 -168q-89 -158 -111 -378q-23 -222 40 -349q51 -104 147 -104z" />
    <glyph glyph-name="p" unicode="p" horiz-adv-x="1257" 
d="M582 1161h34l-20 -145q60 80 147.5 124t180.5 44q194 0 305 -157q99 -141 96 -351q-4 -222 -121 -402q-137 -210 -375 -271q-88 -23 -186 -23q-113 0 -186 53l-47 -338q-5 -43 15 -76t73 -33q13 0 14.5 -24.5t-6.5 -49t-19 -24.5h-520q-11 0 -11.5 24.5t8.5 49t22 24.5
q53 0 82 33t34 76l156 1102q5 42 -15 75t-73 33q-13 0 -16 23t4.5 47.5t21.5 28.5q116 31 199.5 63.5t202.5 93.5zM569 831l-90 -647q41 -102 178 -102q136 0 238 158q93 145 115 346q22 204 -45 328q-61 110 -179 110q-68 0 -130.5 -51.5t-86.5 -141.5z" />
    <glyph glyph-name="q" unicode="q" horiz-adv-x="1228" 
d="M1335 1044q-46 0 -79.5 -30.5t-41.5 -77.5l-174 -1241q-6 -49 18 -79t70 -30q13 0 15 -24.5t-6 -49t-19 -24.5h-520q-11 0 -12 24.5t8 49t22 24.5q46 0 78.5 30t38.5 79l45 321q-77 -36 -168 -36q-270 0 -407.5 160t-100.5 433q23 170 105 310t203.5 220.5t255.5 80.5
q82 0 150.5 -34t109.5 -97l45 90h375q20 -6 14.5 -52.5t-25.5 -46.5zM797 145l108 779q-19 46 -58.5 73t-88.5 27q-145 0 -246 -161q-91 -146 -109 -348q-17 -202 51 -325q60 -108 171 -108q106 0 172 63z" />
    <glyph glyph-name="r" unicode="r" horiz-adv-x="1028" 
d="M174 207l80 571q7 49 -16.5 79t-69.5 30q-13 0 -16 23t4.5 47t21.5 28q115 31 198.5 64t201.5 94h34l-26 -193q51 89 149.5 151t190.5 62q88 0 144.5 -38t67 -92t-3.5 -108.5t-66 -93.5t-122 -40q-53 0 -90.5 21t-44.5 56q5 42 -18 69.5t-62 27.5q-55 -1 -103 -61
t-71 -156l-76 -541q-6 -49 18 -79t70 -30q13 0 15 -24.5t-6 -49t-19 -24.5h-520q-11 0 -12 24.5t8 49t22 24.5q46 0 78.5 30t38.5 79z" />
    <glyph glyph-name="s" unicode="s" horiz-adv-x="933" 
d="M664 238q6 41 -20.5 81.5t-72.5 76.5t-103 73t-113 78t-101.5 84t-69.5 98.5t-16 114.5q22 157 149.5 248.5t327.5 91.5q168 0 285 -89t100 -204q-7 -50 -57 -77.5t-115 -27.5t-108 29.5t-35 81.5q24 91 -10.5 137.5t-98.5 46.5q-58 0 -107.5 -33t-56.5 -85
q-7 -38 20.5 -76.5t76.5 -73.5t110 -72.5t121.5 -81t109 -91t74 -111t15.5 -133.5q-20 -149 -166.5 -246.5t-347.5 -97.5q-183 0 -300.5 104.5t-97.5 249.5q7 50 57 77t115 27t108.5 -29t35.5 -81q-33 -118 7 -182t114 -64q60 0 110 42t60 114z" />
    <glyph glyph-name="t" unicode="t" horiz-adv-x="722" 
d="M745 227q-40 -118 -132 -180.5t-226 -60.5q-115 1 -174.5 82.5t-40.5 210.5l98 696h-102q-13 0 -15 20.5t7 41t24 20.5q75 0 194 129.5t243 347.5h34l-65 -477h172q18 0 23 -20.5t-6 -41t-29 -20.5h-172l-89 -625q-12 -83 6.5 -122.5t69.5 -39.5q28 0 50.5 12t35 26
t27.5 26t29 12q18 0 29 -11t9 -26z" />
    <glyph glyph-name="u" unicode="u" horiz-adv-x="1427" 
d="M248 887q-13 0 -16 23t4.5 47t21.5 28q124 37 205.5 68.5t193.5 89.5h35l-108 -776q-14 -102 28 -165t123 -63q83 1 147.5 67t78.5 161l57 411q7 49 -16.5 79t-69.5 30q-13 0 -16 23t4.5 47t21.5 28q124 37 205.5 68.5t193.5 89.5h35l-110 -793q0 -3 -2.5 -17.5t-4.5 -27
t-3.5 -30.5t-1 -31.5t3.5 -26.5t10 -20t18 -7q26 0 45.5 18.5t36 37t33.5 18.5q18 0 29.5 -11t9.5 -26q-15 -101 -95.5 -171t-181.5 -70q-88 0 -146.5 51t-70.5 139q-58 -92 -150.5 -144t-197.5 -52q-191 0 -269.5 98t-49.5 299l55 401q7 49 -16.5 79t-69.5 30z" />
    <glyph glyph-name="v" unicode="v" horiz-adv-x="1224" 
d="M180 1044q-13 0 -15.5 25t5 49.5t18.5 24.5h521q11 0 12 -24.5t-7.5 -49.5t-21.5 -25q-69 -7 -53 -108l127 -604l264 516q26 51 31.5 89.5t-7.5 60t-31.5 32.5t-41.5 14q-13 0 -15.5 25t5 49.5t18.5 24.5h357q11 0 12 -24.5t-7.5 -49.5t-21.5 -25q-40 -4 -74 -36t-55 -72
l-500 -936h-172l-252 936q-11 40 -35 72t-61 36z" />
    <glyph glyph-name="w" unicode="w" horiz-adv-x="1861" 
d="M1047 1143h245l115 -803l260 506q26 51 31.5 89.5t-7.5 60t-31.5 32.5t-41.5 14q-13 0 -15.5 25t5 49.5t18.5 24.5h356q11 0 12.5 -24.5t-7 -49.5t-21.5 -25q-40 -4 -74 -36t-55 -72l-500 -934h-217l-92 737l-254 -737h-235l-252 934q-9 38 -34.5 71t-62.5 37
q-13 0 -15 25t5.5 49.5t18.5 24.5h520q11 0 12 -24.5t-7.5 -49.5t-21.5 -25q-74 -7 -53 -108l127 -608z" />
    <glyph glyph-name="x" unicode="x" horiz-adv-x="1236" 
d="M418 0h-379q-20 0 -13 28q8 36 52 72l475 406l-342 536q-21 25 -22 49.5t10.5 38t25.5 13.5h518q11 0 12.5 -24.5t-7 -49.5t-21.5 -25q-37 0 -55 -21.5t-15.5 -50t19.5 -50.5l110 -174l203 174q23 22 30 50.5t-8.5 50t-52.5 21.5q-13 0 -15 25t5.5 49.5t18.5 24.5h374
q20 0 15 -28q-7 -37 -51 -73l-459 -387l354 -555q20 -25 20.5 -49.5t-11 -37.5t-25.5 -13h-516q-11 0 -12 24.5t8 49t22 24.5q37 0 55.5 19.5t17 45.5t-19.5 48l-129 205l-231 -205q-21 -21 -24 -47.5t16.5 -46t56.5 -19.5q13 0 15 -24.5t-6 -49t-19 -24.5z" />
    <glyph glyph-name="y" unicode="y" horiz-adv-x="1288" 
d="M475 0l-190 936q-7 41 -36 72t-63 34q-13 0 -14.5 25t7.5 50.5t22 25.5h520q13 0 15 -25.5t-6 -50.5t-21 -25q-36 -3 -52 -30.5t-10 -75.5l115 -766l332 678q41 82 27 136t-77 60q-14 0 -16.5 25t6 49.5t21.5 24.5h350q13 0 15.5 -24.5t-5 -49.5t-20.5 -25
q-35 -3 -71.5 -33t-59.5 -75q-47 -91 -217 -427t-263 -509q-34 -246 -177 -382t-367 -136q-141 0 -232.5 66.5t-79.5 158.5q7 52 59 81.5t117 29.5q64 0 106.5 -27.5t35.5 -77.5q-6 -53 16 -89t60 -36q54 0 101 46.5t70.5 110.5t21 136t-39.5 119z" />
    <glyph glyph-name="z" unicode="z" horiz-adv-x="1181" 
d="M1128 379q10 8 30 1t37.5 -24t10.5 -26l-153 -307l-31 -23h-969q-14 0 -22 13t0 37.5t35 49.5l735 844q28 38 19 70.5t-50 36.5h-117q-68 0 -178.5 -81t-200.5 -196q-10 -9 -30 -2t-37 24t-10 27l155 305l31 23l408 2h495q12 0 19.5 -11t7.5 -26q-6 -37 -39 -63
l-739 -846q-28 -38 -19.5 -70.5t49.5 -36.5h187q66 0 172 80.5t204 198.5z" />
    <glyph glyph-name="braceleft" unicode="{" horiz-adv-x="512" 
d="M709 1788q29 -2 35.5 -25.5t-9.5 -46t-41 -22.5q-45 0 -73 -34t-36 -88.5t-10.5 -122.5t2.5 -135.5t5 -127.5t-4 -99q-17 -92 -79 -169t-151 -115q78 -38 118.5 -116t31.5 -169q-3 -30 -18.5 -81t-33.5 -103.5t-37.5 -110.5t-30 -108.5t-11.5 -91.5t17.5 -65t57.5 -24
q30 0 37 -30q7 -32 -19 -53q-13 -10 -32 -11q-128 0 -182.5 86t-42.5 267q1 16 8 60.5t14 92.5t14 107.5t8 111t-4 95.5t-22.5 70t-46.5 26q-35 0 -40 32q-4 32 21 52q14 10 31 10q40 0 71.5 47.5t51 125.5t32 149t22 148.5t12.5 92.5q38 185 123 280t211 95z" />
    <glyph glyph-name="bar" unicode="|" horiz-adv-x="196" 
d="M389 1665l-254 -1804q-1 -9 -20.5 -14t-42.5 -5q-52 0 -52 17l254 1808q1 9 20 14t42 5q56 0 53 -21z" />
    <glyph glyph-name="braceright" unicode="}" horiz-adv-x="505" 
d="M305 1782q250 0 223 -369q-1 -16 -7.5 -60t-14 -93t-14.5 -107.5t-7.5 -111t4 -96t22 -69.5t46.5 -26q33 0 39 -32t-19 -52q-14 -10 -32 -10q-40 0 -71.5 -48t-50.5 -125t-31.5 -149.5t-22 -147.5t-13.5 -93q-39 -186 -118.5 -277.5t-206.5 -91.5q-31 2 -38 25.5t9 46
t41 22.5q45 0 72.5 33.5t35.5 87.5t10 120.5t-4 133.5t-5.5 126.5t4.5 98.5q15 91 77 169t150 116q-77 38 -117 116t-30 168q3 30 18 82t33.5 105.5t37.5 114t30 112.5t12.5 95t-17 67.5t-57.5 24.5q-25 0 -35 22.5t3 46t44 25.5z" />
    <glyph glyph-name="asciitilde" unicode="~" horiz-adv-x="1110" 
d="M1104 774q6 16 20.5 25.5t30.5 9.5q22 0 34 -14t5 -39q-58 -146 -274 -146q-92 0 -284.5 33t-266.5 33q-123 0 -168 -62q-12 -34 -51 -34q-21 0 -33.5 14t-5.5 39q35 84 108 118.5t180 34.5q95 0 288.5 -33.5t264.5 -33.5q113 0 152 55z" />
    <glyph glyph-name="exclamdown" unicode="&#xa1;" horiz-adv-x="481" 
d="M479 1702q89 0 121 -75q29 -68 -5 -145q-35 -81 -115 -103q-24 -7 -50 -7q-86 0 -118 75q-29 69 4 146q35 82 115 103q23 6 48 6zM354 1217q3 22 20.5 33.5t39.5 11.5q25 0 40.5 -12t12.5 -33q-2 -100 -9 -265.5t-11.5 -282.5t-4.5 -264.5t9 -265.5q-7 -55 -67.5 -85.5
t-137.5 -30.5q-79 0 -130.5 31.5t-43.5 90.5q52 146 98 317t105.5 425t78.5 330z" />
    <glyph glyph-name="cent" unicode="&#xa2;" horiz-adv-x="1404" 
d="M1481 637q-82 -239 -286.5 -392.5t-453.5 -162.5l-12 -84q-3 -16 -51 -16q-54 0 -51 20l12 84q-272 25 -411 225q-121 174 -109 423q12 247 149 460q149 230 390 326q91 36 190 49l12 94q3 16 51 16q55 0 52 -20l-13 -82h15q167 0 298 -66t196 -180t46 -250
q-6 -49 -64.5 -76.5t-135.5 -27.5t-130.5 29t-46.5 81q20 148 -37 262.5t-155 123.5l-156 -1104h13l24 -2q350 0 578 335q17 17 39 17q27 0 43.5 -23t3.5 -59zM682 389l149 1075q-107 -28 -193 -110.5t-135 -190t-66.5 -230.5t1.5 -231.5t82 -194.5t162 -118z" />
    <glyph glyph-name="sterling" unicode="&#xa3;" horiz-adv-x="1359" 
d="M651 807h269q13 0 13.5 -28.5t-8.5 -56.5t-20 -28h-266q-67 -468 -223 -594l334 2q22 0 49 8.5t53 22t55.5 34t55.5 41t54 46t49.5 46t45 44.5t36.5 38t27 29.5t15 16.5q14 14 39 14q31 0 47.5 -21.5t-0.5 -58.5l-178 -339l-31 -23h-1028q-11 0 -12 24.5t8 49t22 24.5
q111 0 164 149q36 101 65 363q2 17 5 50q3 23 4 34h-80q-11 0 -13 28t6 56.5t21 28.5h76q5 31 14 94q57 394 220 585.5t448 192.5q169 1 295 -56.5t186.5 -162t42.5 -235.5q-7 -50 -66.5 -77.5t-135.5 -27.5q-77 0 -130 29.5t-46 81.5l2 2q36 147 -22 233t-159 86
q-62 0 -117.5 -33.5t-97 -108t-49.5 -177.5q-18 -235 -39 -426z" />
    <glyph glyph-name="currency" unicode="&#xa4;" horiz-adv-x="1136" 
d="M588 137q-191 0 -299 123l-129 -113q-10 -10 -27 -10q-24 0 -47 23.5t-28.5 50t10.5 45.5l149 131q-45 121 -24 268.5t100 268.5l-109 127q-23 28 20 72t83 44q14 0 22 -8l94 -110q139 118 330 118q190 0 301 -120l125 110q10 10 27 10q38 0 66 -47t1 -71l-147 -129
q46 -123 25 -270.5t-103 -270.5l107 -125q23 -28 -20 -72.5t-83 -44.5q-15 0 -20 8l-94 109q-145 -117 -330 -117zM725 1106q-143 0 -243 -155q-91 -141 -108 -334q-17 -195 53 -313q61 -102 171 -105q139 -4 240 150q91 139 110 334q20 197 -48 317q-61 106 -175 106z" />
    <glyph glyph-name="yen" unicode="&#xa5;" horiz-adv-x="1499" 
d="M1346 672h-351l-16 -113h354q11 0 12 -25.5t-8 -51t-22 -25.5h-350l-35 -250q-6 -49 18 -79t70 -30q13 0 15 -24.5t-6 -49t-19 -24.5h-521q-11 0 -11.5 24.5t8.5 49t22 24.5q46 0 78.5 30t38.5 79l34 250h-346q-11 0 -11.5 25.5t8.5 51t22 25.5h342l16 113h-346
q-11 0 -12 25.5t8 51t22 25.5h310l-318 662q-19 48 -43 75t-49 27q-13 0 -15.5 24.5t5 49t18.5 24.5h574q11 0 12 -24.5t-7.5 -49t-21.5 -24.5q-54 0 -93 -35.5t-30 -75.5l261 -575l454 580q22 38 -8 72t-84 34q-13 0 -15.5 24.5t5 49t18.5 24.5h357q11 0 12 -24.5t-7.5 -49
t-21.5 -24.5q-26 0 -74 -39t-73 -80l-504 -645h342q11 0 12 -25.5t-8 -51t-22 -25.5z" />
    <glyph glyph-name="brokenbar" unicode="&#xa6;" horiz-adv-x="196" 
d="M279 877h-115l110 790q1 9 20 14t42 5q56 0 53 -21zM119 549h114l-102 -729q-3 -19 -65 -19q-52 0 -52 17z" />
    <glyph glyph-name="section" unicode="&#xa7;" horiz-adv-x="1077" 
d="M731 201q5 35 -28 72.5t-88.5 73t-123.5 74.5t-134.5 85.5t-119 97.5t-79.5 119t-15 143q15 100 87 175.5t186 109.5q-76 101 -58 221q20 136 138 221.5t288 85.5q168 0 285 -89t100 -204q-7 -50 -57 -77t-115 -27t-108 29.5t-35 81.5q24 91 -10.5 137.5t-98.5 46.5
q-58 0 -107 -33.5t-56 -85.5q-8 -43 14 -84.5t65 -75.5t99 -71t115.5 -71t115.5 -75.5t98.5 -84t64 -98.5t13.5 -116q-15 -105 -92 -182t-198 -108q92 -99 77 -205q-15 -100 -88 -172.5t-172 -106t-209 -33.5q-114 0 -208.5 35t-150.5 109t-42 174q7 50 57 77t115 27
t108.5 -29t36.5 -81q-27 -95 21.5 -145t130.5 -50q66 0 118.5 30t59.5 79zM944 696q6 47 -39 95t-107.5 84t-154 91t-147.5 101q-51 -9 -87 -41.5t-42 -73.5q-8 -43 12.5 -83t67.5 -77.5t93.5 -68t117.5 -73t114 -72.5q61 -3 113 32t59 86z" />
    <glyph glyph-name="dieresis" unicode="&#xa8;" horiz-adv-x="618" 
d="M338 1339q-80 0 -105 61q-21 53 13 108q42 65 125 65q80 0 105 -61q21 -53 -13 -108q-42 -65 -125 -65zM657 1339q-79 0 -103 61q-22 53 13 108q41 65 123 65q80 0 105 -61q21 -53 -13 -108q-42 -65 -125 -65z" />
    <glyph glyph-name="copyright" unicode="&#xa9;" horiz-adv-x="1581" 
d="M137 829q23 165 86 305.5t150.5 240t195.5 169.5t223.5 103.5t231.5 33.5q117 0 223 -33t194.5 -103t148.5 -168.5t83.5 -238t1.5 -304.5q-23 -166 -85.5 -307t-150 -241t-196 -170.5t-224 -104.5t-233.5 -34q-97 0 -186.5 23.5t-169 71t-141.5 118.5t-103 165.5t-54 213
t5 260.5zM240 829q-21 -150 -0.5 -269.5t71.5 -209t127.5 -149.5t168 -89.5t192.5 -29.5q102 0 202 29.5t194.5 91t171 149t131.5 212t75 270.5q19 144 -1.5 267t-72.5 210t-128.5 148t-168 90.5t-192.5 29.5q-127 0 -251 -48t-231 -138.5t-184.5 -236.5t-103.5 -327z
M1260 610q25 25 36 25q17 0 25.5 -8.5t5.5 -22.5q-40 -125 -176 -209t-297 -84q-227 0 -343 153q-96 128 -83 312q13 186 129 331q137 173 358 205q46 7 95 7q172 0 272.5 -105t77.5 -260q-6 -41 -47 -63.5t-94 -22.5q-55 0 -91.5 25t-29.5 68q20 142 -7.5 205.5
t-107.5 60.5q-37 -1 -75.5 -26.5t-69.5 -67t-58 -95t-39.5 -112.5t-16 -117.5t14 -111.5t50 -94t93 -65t140.5 -24q72 0 136.5 26t101.5 70z" />
    <glyph glyph-name="ordfeminine" unicode="&#xaa;" horiz-adv-x="907" 
d="M641 1636q162 0 244 -58.5t67 -164.5l-51 -360q0 -2 -1.5 -12t-2.5 -19t-2 -21.5t0 -22.5t3 -19t7 -14t13 -5q22 0 42.5 26.5t34.5 26.5t21 -7t6 -19q-9 -71 -65 -120.5t-126 -49.5q-55 0 -94.5 27.5t-52.5 76.5q-40 -48 -108.5 -76t-145.5 -28q-135 0 -209.5 48.5
t-62.5 129.5q9 64 60.5 115.5t124.5 86.5t147 65.5t142.5 67.5t98.5 76l4 21q12 88 -12 125.5t-90 34.5q-60 0 -99.5 -50.5t-52.5 -146.5q-4 -35 -40 -55.5t-79 -20.5q-46 0 -77 21t-25 59q17 120 120.5 191t260.5 71zM682 1028l35 260q-33 -29 -92.5 -66.5t-101 -64
t-77.5 -71t-43 -95.5q-6 -45 28.5 -72.5t86.5 -27.5q59 0 106.5 35.5t57.5 101.5z" />
    <glyph glyph-name="guillemotleft" unicode="&#xab;" horiz-adv-x="1173" 
d="M750 633l393 -322q13 -11 14 -31t-8.5 -37.5t-31 -28t-46.5 -3.5l-440 367q-34 23 -30 56.5t44 53.5l549 377q22 10 44.5 -5t24.5 -41t-26 -54zM340 633l393 -322q13 -11 14 -31t-8.5 -37.5t-30.5 -28t-46 -3.5l-441 367q-34 23 -29.5 56.5t44.5 53.5l548 377
q22 10 44.5 -5t24.5 -41t-26 -54z" />
    <glyph glyph-name="logicalnot" unicode="&#xac;" horiz-adv-x="845" 
d="M748 547h-603q-30 0 -35.5 38.5t12 76.5t44.5 38h711q22 0 30.5 -27.5t1.5 -60.5l-49 -344q-3 -21 -28.5 -33t-57.5 -12q-30 0 -50 11.5t-17 33.5z" />
    <glyph glyph-name="registered" unicode="&#xae;" horiz-adv-x="794" 
d="M201 1212q25 175 146 288.5t282 115.5q166 2 257 -111t66 -291q-23 -182 -151 -297.5t-299 -109.5q-155 5 -240.5 119t-60.5 286zM252 1212q-12 -86 6 -155.5t58 -112.5t94 -65.5t116 -22.5q84 0 161.5 38.5t137.5 122t76 197.5q23 167 -60 261t-214 94t-240.5 -94
t-134.5 -263zM391 1417q-4 0 -4.5 6.5t1.5 13.5t5 7h199q85 0 135 -33.5t56.5 -78.5t-25 -90.5t-94.5 -67.5l53 -146q5 -11 16 -21t21 -10q3 0 3 -7.5t-2.5 -15t-6.5 -7.5h-152q-4 0 -4.5 7.5t1.5 15t5 7.5q10 0 14.5 9.5t1.5 21.5l-47 125h-90l-16 -125q-3 -14 4 -22.5
t20 -8.5q4 0 4.5 -7.5t-1.5 -15t-5 -7.5h-157q-3 0 -3 7.5t2.5 15t6.5 7.5q30 0 37 31l49 356q1 15 -6 24t-21 9zM510 1384l-25 -170q-1 -13 6 -21.5t21 -8.5h23q80 0 124 64q38 54 19 106q-23 62 -111 63h-22q-14 0 -24 -9t-11 -24z" />
    <glyph glyph-name="macron" unicode="&#xaf;" horiz-adv-x="622" 
d="M760 1458h-488q-34 0 -37 36q-4 36 22 61q14 14 32 14h487q27 0 35.5 -27.5t-6.5 -55.5t-45 -28z" />
    <glyph glyph-name="degree" unicode="&#xb0;" horiz-adv-x="811" 
d="M516 797q-194 0 -280 140q-72 117 -43 283q30 163 140 277q124 127 296 127q193 0 282 -139q74 -116 48 -280q-25 -163 -136 -277q-126 -131 -307 -131zM528 868q124 0 207 132q73 118 77 272q5 154 -65 231q-47 51 -118 51q-124 0 -208 -131q-75 -117 -81 -270t64 -232
q48 -53 124 -53z" />
    <glyph glyph-name="plusminus" unicode="&#xb1;" horiz-adv-x="845" 
d="M453 762l39 278q3 22 26 33.5t53 11.5q33 0 55 -12t19 -33l-39 -278h279q27 0 34 -38.5t-9 -77t-46 -38.5h-278l-39 -278q-3 -21 -28.5 -33t-57.5 -12t-51.5 11.5t-16.5 33.5l39 278h-278q-30 0 -36 38.5t11.5 77t44.5 38.5h279zM778 0h-710q-30 0 -35.5 38.5t12.5 77
t45 38.5h711q27 0 33.5 -38.5t-10 -77t-46.5 -38.5z" />
    <glyph glyph-name="twosuperior" unicode="&#xb2;" horiz-adv-x="641" 
d="M637 928l76 76q5 8 18 8q14 0 22.5 -11.5t0.5 -27.5l-86 -162l-15 -10h-497q-17 0 -17 18q7 45 26 84t41 65.5t60 55t65 44.5t75.5 43t72.5 42q68 41 110.5 111.5t51.5 156.5q8 66 -20.5 105t-85.5 39q-59 0 -102.5 -45t-53.5 -117q-4 -26 -30.5 -40.5t-59.5 -14.5
t-54 13.5t-18 37.5q14 95 106.5 156.5t219.5 58.5q123 -3 191.5 -61.5t56.5 -149.5q-24 -204 -336 -338q-72 -36 -113.5 -65.5t-77.5 -71.5h373z" />
    <glyph glyph-name="threesuperior" unicode="&#xb3;" horiz-adv-x="598" 
d="M506 1221q142 -10 198 -100q47 -76 11 -164q-37 -90 -140 -133q-67 -27 -149 -27q-135 0 -206.5 54t-59.5 146q3 23 29 37.5t57 14.5q34 0 57 -15t19 -41q-9 -69 19 -107t91 -38q52 0 91 35t50.5 85t4 100t-50.5 85t-111 35q-10 0 -12 12t6 25q97 40 164 135
q64 88 50 150q-13 57 -94 57q-55 0 -97.5 -47t-53.5 -119q-4 -26 -30.5 -40.5t-59.5 -14.5t-54 13.5t-18 37.5q13 99 96.5 159t206.5 60q103 -1 166.5 -36.5t73 -88.5t-12 -108.5t-87.5 -101t-154 -60.5z" />
    <glyph glyph-name="acute" unicode="&#xb4;" horiz-adv-x="356" 
d="M530 1468l-268 -141q-33 -18 -46.5 11t13.5 48l236 185q17 16 43 -6.5t33.5 -51.5t-11.5 -45z" />
    <glyph glyph-name="uni00B5" unicode="&#xb5;" horiz-adv-x="1345" 
d="M487 -512h-413l202 1448q7 49 -16.5 78.5t-69.5 29.5q-13 0 -15 25t5.5 49.5t18.5 24.5h413l-108 -776q-14 -102 28 -165t123 -63q83 1 146.5 66t77.5 162l79 569q7 49 -16.5 78.5t-69.5 29.5q-13 0 -15 25t5.5 49.5t18.5 24.5h413l-110 -793q0 -3 -2.5 -17.5t-4.5 -27
t-3.5 -30.5t-1 -31.5t3.5 -26.5t10 -20t18 -7q26 0 45.5 18.5t36 37t33.5 18.5q18 0 29.5 -11t9.5 -26q-15 -102 -95 -171.5t-182 -69.5q-88 0 -146.5 51t-68.5 137q-60 -91 -152.5 -142.5t-195.5 -51.5q-21 0 -67 4l-41 -289q-6 -49 18 -79t70 -30q13 0 14.5 -24.5
t-6.5 -49t-19 -24.5z" />
    <glyph glyph-name="paragraph" unicode="&#xb6;" horiz-adv-x="995" 
d="M442 16l97 680q-205 0 -299 149q-80 127 -54 308q25 179 139 310q135 157 330 163h15h522l-12 -98l-213 -1510q-3 -18 -66 -18q-52 0 -49 16l211 1495h-295l-211 -1493q-3 -18 -65 -18q-53 0 -50 16z" />
    <glyph glyph-name="periodcentered" unicode="&#xb7;" horiz-adv-x="638" 
d="M393 545q-159 0 -223 119q-55 101 -21 237q35 134 135 214q87 69 197 69q158 0 225 -118q57 -100 25 -235t-134 -216q-88 -70 -204 -70z" />
    <glyph glyph-name="cedilla" unicode="&#xb8;" horiz-adv-x="569" 
d="M129 -111q-50 0 -35 41l49 93l54 -7l-47 -90q209 0 303 -104q68 -74 47 -167q-21 -90 -114 -140q-73 -39 -171 -39q-123 0 -188.5 49.5t-53.5 134.5q3 22 26.5 34.5t53.5 12.5t51.5 -13t18.5 -36q-10 -66 15.5 -101.5t82.5 -35.5q74 0 118.5 70.5t25.5 150.5
q-22 94 -122 129q-49 18 -114 18z" />
    <glyph glyph-name="onesuperior" unicode="&#xb9;" horiz-adv-x="350" 
d="M227 922l70 495q5 28 -8 44t-39 16q-7 0 -8 12.5t3 25.5t11 15q18 5 32.5 9.5t31 10.5t24.5 9t27.5 12.5t25 12t31.5 16t33 16.5h18l-98 -694q-6 -60 47 -60q7 0 8 -13t-2.5 -26.5t-9.5 -13.5h-268q-6 0 -6.5 13.5t3.5 26.5t11 13q25 0 42.5 17t20.5 43z" />
    <glyph glyph-name="ordmasculine" unicode="&#xba;" horiz-adv-x="337" 
d="M344 1257q-90 0 -120 68q-25 59 9 122q39 72 123 83q13 2 27 2q91 0 121 -68q26 -59 -9 -122q-39 -72 -124 -83q-13 -2 -27 -2zM381 1516q-35 0 -57 -60t-16.5 -120.5t38.5 -61.5q36 -2 60 58.5t18 122t-43 61.5z" />
    <glyph glyph-name="guillemotright" unicode="&#xbb;" horiz-adv-x="1173" 
d="M653 643l-393 322q-13 11 -14 31t8.5 37.5t31 28t46.5 3.5l442 -367q34 -23 29 -56.5t-45 -53.5l-549 -377q-22 -10 -44 5t-24 41t25 54zM1063 643l-393 322q-13 11 -14 31t8.5 37.5t30.5 28t46 3.5l443 -367q34 -23 28.5 -56.5t-45.5 -53.5l-549 -377q-22 -10 -44 5
t-24 41t25 54z" />
    <glyph glyph-name="onequarter" unicode="&#xbc;" horiz-adv-x="1185" 
d="M1102 1597l-838 -1591q-4 -12 -26 -8q-29 2 -55.5 15t-18.5 26l835 1593q3 8 21 8q27 0 58 -14.5t24 -28.5zM217 918l72 503q6 60 -47 60q-7 0 -8.5 12.5t2 25.5t10.5 15q18 5 32.5 9.5t31 10.5t24.5 9t27.5 12.5t25 12t31.5 16t33 16.5h18l-98 -702q-5 -28 8 -44t39 -16
q7 0 7.5 -13t-3.5 -26.5t-10 -13.5h-269q-5 2 -5.5 14t4.5 25.5t12 13.5q25 0 42.5 17t20.5 43zM907 788l-282 -534h323l64 448q4 26 -7 41t-34 15q-6 0 -6.5 12t2.5 23.5t8 11.5h203l-78 -551h90q7 0 7.5 -13t-3.5 -25.5t-10 -12.5h-90l-15 -103q-3 -24 8.5 -38.5
t34.5 -14.5q6 0 6.5 -11.5t-2.5 -23.5t-8 -12h-258q-5 0 -5 12t3.5 23.5t9.5 11.5q23 0 40 15t20 38l14 103h-381q-6 0 -9 7t0.5 19t12.5 25l293 551q4 5 16 3.5t24 -8t9 -12.5z" />
    <glyph glyph-name="onehalf" unicode="&#xbd;" horiz-adv-x="1263" 
d="M1102 1597l-838 -1591q-4 -12 -26 -8q-29 2 -55.5 15t-18.5 26l835 1593q3 8 21 8q27 0 58 -14.5t24 -28.5zM217 918l72 503q6 60 -47 60q-7 0 -8.5 12.5t2 25.5t10.5 15q18 5 32.5 9.5t31 10.5t24.5 9t27.5 12.5t25 12t31.5 16t33 16.5h18l-98 -702q-5 -28 8 -44t39 -16
q7 0 7.5 -13t-3.5 -26.5t-10 -13.5h-269q-5 2 -5.5 14t4.5 25.5t12 13.5q25 0 42.5 17t20.5 43zM1147 125l23.5 23.5t28.5 28t24 24.5q5 8 18 8q14 0 22.5 -11.5t0.5 -27.5l-86 -162l-15 -10h-497q-8 0 -13 5.5t-4 12.5q7 45 26 84t41 65.5t60 55t65 44.5t75.5 43t72.5 42
q68 42 110.5 112t49.5 156q8 66 -20 105t-85 39q-58 0 -101 -45t-54 -117q-4 -26 -30.5 -40.5t-59.5 -14.5t-54 13.5t-18 37.5q14 95 106.5 156.5t219.5 58.5q122 -3 190 -61.5t57 -149.5q-24 -204 -335 -338q-72 -36 -113.5 -65.5t-77.5 -71.5h373z" />
    <glyph glyph-name="threequarters" unicode="&#xbe;" horiz-adv-x="1384" 
d="M1286 1597l-837 -1591q-3 -8 -27 -8q-29 2 -55.5 15t-18.5 26l836 1593q3 8 20 8q27 0 58 -14.5t24 -28.5zM506 1221q142 -10 198 -100q47 -76 11 -164q-37 -90 -140 -133q-67 -27 -149 -27q-135 0 -206.5 54t-59.5 146q3 23 29 37.5t57 14.5q34 0 57 -15t19 -41
q-9 -69 19 -107t91 -38q52 0 91 35t50.5 85t4 100t-50.5 85t-111 35q-10 0 -12 12t6 25q97 40 164 135q64 88 50 150q-13 57 -94 57q-55 0 -97.5 -47t-53.5 -119q-4 -26 -30.5 -40.5t-59.5 -14.5t-54 13.5t-18 37.5q13 99 96.5 159t206.5 60q103 -1 166.5 -36.5t73 -88.5
t-12 -108.5t-87.5 -101t-154 -60.5zM1106 788l-283 -534h324l63 448q4 26 -7 41t-34 15q-6 0 -6.5 12t3 23.5t8.5 11.5h202l-78 -551h91q7 0 7.5 -13t-4 -25.5t-10.5 -12.5h-90l-14 -103q-3 -24 8.5 -38.5t34.5 -14.5q6 0 6.5 -11.5t-2.5 -23.5t-8 -12h-258q-5 0 -5 12
t3.5 23.5t9.5 11.5q23 0 39.5 15t19.5 38l15 103h-381q-6 0 -9 7t0.5 19t12.5 25l293 551q4 5 16 3.5t24 -8t9 -12.5z" />
    <glyph glyph-name="questiondown" unicode="&#xbf;" horiz-adv-x="1181" 
d="M721 1186q95 0 125 -78q26 -68 -11 -145q-37 -80 -113 -101q-21 -6 -44 -6q-94 0 -125 76q-28 68 7 146q37 80 115 102q22 6 46 6zM1153 -59q-28 -199 -216 -327t-454 -128q-236 0 -371 103t-112 264q9 65 43.5 129.5t83 120t105.5 111t114 111.5t105 113t82 125t42 137
q3 21 33 33t66 12q34 0 56.5 -11.5t19.5 -33.5q-10 -88 -56.5 -185t-106.5 -182t-119.5 -167.5t-106 -168t-56.5 -155.5q-15 -114 38 -184t155 -70q121 0 208.5 95t110.5 251q7 52 62 81.5t125 29.5q67 0 111.5 -27t37.5 -77z" />
    <glyph glyph-name="Agrave" unicode="&#xc0;" horiz-adv-x="1550" 
d="M1122 1735l-227 141q-16 16 -0.5 45t48 51t46.5 6l182 -184q21 -19 -0.5 -48t-48.5 -11zM1014 481h-557l-133 -276q-20 -38 9 -72.5t83 -34.5q13 0 15 -24.5t-6 -49t-19 -24.5h-357q-11 0 -11.5 24.5t8.5 49t22 24.5q43 0 74.5 24t60.5 79l594 1231q23 40 0.5 73
t-72.5 33q-13 0 -15.5 24.5t5 49t18.5 24.5h391l283 -1435q11 -54 35.5 -78.5t68.5 -24.5q13 0 15 -24.5t-6 -49t-19 -24.5h-573q-11 0 -12 24.5t8 49t22 24.5q54 0 93 35.5t28 75.5zM854 1303l-348 -719h489z" />
    <glyph glyph-name="Aacute" unicode="&#xc1;" horiz-adv-x="1550" 
d="M1184 1878l-269 -141q-22 -10 -35.5 -1.5t-13 28.5t16.5 32l235 184q17 16 44 -6t34 -51t-12 -45zM1014 481h-557l-133 -276q-20 -38 9 -72.5t83 -34.5q13 0 15 -24.5t-6 -49t-19 -24.5h-357q-11 0 -11.5 24.5t8.5 49t22 24.5q43 0 74.5 24t60.5 79l594 1231
q23 40 0.5 73t-72.5 33q-13 0 -15.5 24.5t5 49t18.5 24.5h391l283 -1435q11 -54 35.5 -78.5t68.5 -24.5q13 0 15 -24.5t-6 -49t-19 -24.5h-573q-11 0 -12 24.5t8 49t22 24.5q54 0 93 35.5t28 75.5zM854 1303l-348 -719h489z" />
    <glyph glyph-name="Acircumflex" unicode="&#xc2;" horiz-adv-x="1550" 
d="M766 1776l211 200h156l151 -200q14 -20 7 -36t-25 -16q-13 0 -27 11l-197 159l-241 -159q-34 -22 -49 -4.5t14 45.5zM1014 481h-557l-133 -276q-20 -38 9 -72.5t83 -34.5q13 0 15 -24.5t-6 -49t-19 -24.5h-357q-11 0 -11.5 24.5t8.5 49t22 24.5q43 0 74.5 24t60.5 79
l594 1231q23 40 0.5 73t-72.5 33q-13 0 -15.5 24.5t5 49t18.5 24.5h391l283 -1435q11 -54 35.5 -78.5t68.5 -24.5q13 0 15 -24.5t-6 -49t-19 -24.5h-573q-11 0 -12 24.5t8 49t22 24.5q54 0 93 35.5t28 75.5zM854 1303l-348 -719h489z" />
    <glyph glyph-name="Atilde" unicode="&#xc3;" horiz-adv-x="1550" 
d="M1325 1884q-92 -108 -186 -108q-51 0 -135 43t-121 43q-50 0 -92 -50q-13 -16 -31 -16q-15 0 -25.5 11.5t-7 33t26.5 45.5q72 92 157 92q47 0 134.5 -41t128.5 -41q60 0 114 62q21 25 47 12q26 -12 16 -46q-6 -19 -26 -40zM1014 481h-557l-133 -276q-20 -38 9 -72.5
t83 -34.5q13 0 15 -24.5t-6 -49t-19 -24.5h-357q-11 0 -11.5 24.5t8.5 49t22 24.5q43 0 74.5 24t60.5 79l594 1231q23 40 0.5 73t-72.5 33q-13 0 -15.5 24.5t5 49t18.5 24.5h391l283 -1435q11 -54 35.5 -78.5t68.5 -24.5q13 0 15 -24.5t-6 -49t-19 -24.5h-573
q-11 0 -12 24.5t8 49t22 24.5q54 0 93 35.5t28 75.5zM854 1303l-348 -719h489z" />
    <glyph glyph-name="Adieresis" unicode="&#xc4;" horiz-adv-x="1550" 
d="M862 1749q-81 0 -105 61q-21 53 13 107q41 65 125 65q81 0 105 -61q21 -53 -13 -107q-41 -65 -125 -65zM1182 1749q-80 0 -104 61q-21 54 14 108q40 64 122 64q81 0 105 -61q22 -53 -12 -107q-41 -65 -125 -65zM1014 481h-557l-133 -276q-20 -38 9 -72.5t83 -34.5
q13 0 15 -24.5t-6 -49t-19 -24.5h-357q-11 0 -11.5 24.5t8.5 49t22 24.5q43 0 74.5 24t60.5 79l594 1231q23 40 0.5 73t-72.5 33q-13 0 -15.5 24.5t5 49t18.5 24.5h391l283 -1435q11 -54 35.5 -78.5t68.5 -24.5q13 0 15 -24.5t-6 -49t-19 -24.5h-573q-11 0 -12 24.5t8 49
t22 24.5q54 0 93 35.5t28 75.5zM854 1303l-348 -719h489z" />
    <glyph glyph-name="Aring" unicode="&#xc5;" horiz-adv-x="1550" 
d="M1014 1710q-90 0 -120 68q-25 59 9 122q39 72 123 83q13 2 27 2q91 0 121 -68q26 -59 -9 -122q-39 -72 -124 -83q-13 -2 -27 -2zM1051 1968q-35 0 -57 -60t-16.5 -120.5t38.5 -61.5q36 -2 60 58.5t18 122t-43 61.5zM1014 481h-557l-133 -276q-20 -38 9 -72.5t83 -34.5
q13 0 15 -24.5t-6 -49t-19 -24.5h-357q-11 0 -11.5 24.5t8.5 49t22 24.5q43 0 74.5 24t60.5 79l594 1231q23 40 0.5 73t-72.5 33q-13 0 -15.5 24.5t5 49t18.5 24.5h391l283 -1435q11 -54 35.5 -78.5t68.5 -24.5q13 0 15 -24.5t-6 -49t-19 -24.5h-573q-11 0 -12 24.5t8 49
t22 24.5q54 0 93 35.5t28 75.5zM854 1303l-348 -719h489z" />
    <glyph glyph-name="AE" unicode="&#xc6;" horiz-adv-x="2242" 
d="M1898 733l-389 21l-77 -547q-6 -47 18 -77t70 -30h221q25 0 54.5 10t60 28t61 39.5t62 49.5t57.5 51.5t53 51t42.5 44t32.5 35t17 19.5q14 14 39 14q31 0 47.5 -21.5t-0.5 -58.5l-178 -339l-31 -23h-1241q-11 0 -11.5 24.5t8.5 49t22 24.5h172q46 0 78 29t38 76l41 289
h-626l-187 -287q-22 -40 4.5 -73.5t79.5 -33.5q13 0 15 -24.5t-6 -49t-19 -24.5h-377q-11 0 -11.5 24.5t8.5 49t22 24.5q39 0 86 31.5t69 71.5l824 1267q15 28 -4 48t-62 20q-109 0 -205.5 -115.5t-118.5 -273.5q-7 -52 -68.5 -81.5t-139.5 -29.5q-75 0 -127 27.5t-46 77.5
q14 102 75 193.5t152 157.5t209.5 105t243.5 39h1291l24 -22l82 -340q8 -34 -14.5 -57t-52.5 -23q-27 0 -35 14q-72 111 -117 166q-133 162 -233 162h-181q-46 0 -78 -29.5t-38 -76.5l-80 -576l344 66l24 -23l33 -137q-3 -27 -27 -27zM1217 1536l-611 -942h574l131 942h-94z
" />
    <glyph glyph-name="Ccedilla" unicode="&#xc7;" horiz-adv-x="1425" 
d="M1477 535q-86 -249 -300 -403t-472 -152q-47 0 -97 6l-30 -60q209 0 303 -104q68 -74 47 -167q-21 -90 -114 -140q-73 -39 -171 -39q-123 0 -188.5 49.5t-53.5 134.5q3 22 26.5 34.5t53.5 12.5t51.5 -13t18.5 -36q-10 -66 15.5 -101.5t82.5 -35.5q74 0 118.5 70.5
t25.5 150.5q-22 94 -122 129q-49 18 -114 18q-50 0 -35 41l35 66q-121 29 -212 104.5t-139.5 180t-70.5 231t-4 260t58.5 264.5t118.5 246.5t174.5 204.5t228.5 140.5t278 51.5q125 0 233 -39t180 -105t107 -157.5t21 -193.5q-6 -50 -65 -77.5t-136 -27.5t-130 29.5
t-46 81.5q22 157 -42.5 272t-174.5 115q-158 0 -295 -175q-128 -165 -183 -406q-59 -258 1 -454q64 -209 249 -262q54 -15 117 -16q158 -3 306.5 85.5t259.5 250.5q16 16 39 16q27 0 43.5 -22.5t3.5 -58.5z" />
    <glyph glyph-name="Egrave" unicode="&#xc8;" horiz-adv-x="1312" 
d="M1004 1735l-228 141q-16 16 -0.5 45t48 51t46.5 6l183 -184q21 -19 -0.5 -48t-48.5 -11zM584 854l344 66l24 -23l33 -137q-3 -27 -27 -27l-389 21l-77 -547q-6 -47 18 -77t70 -30h221q25 0 54.5 10t60 28t61 39.5t62 49.5t57.5 51.5t53 51t42.5 44t32.5 35t17 19.5
q14 14 39 14q31 0 47.5 -21.5t-0.5 -58.5l-178 -339l-31 -23h-1069q-11 0 -11.5 24.5t8.5 49t22 24.5q46 0 78 29t38 76l172 1227q7 49 -16.5 78.5t-69.5 29.5q-13 0 -15 24.5t5.5 49t18.5 24.5h1028l24 -22l82 -340q8 -34 -14.5 -57t-52.5 -23q-27 0 -35 14
q-72 111 -117 166q-133 162 -233 162h-181q-46 0 -78 -29.5t-38 -76.5z" />
    <glyph glyph-name="Eacute" unicode="&#xc9;" horiz-adv-x="1312" 
d="M1065 1878l-268 -141q-22 -10 -35.5 -1.5t-13.5 28.5t16 32l235 184q17 16 44 -6t34 -51t-12 -45zM584 854l344 66l24 -23l33 -137q-3 -27 -27 -27l-389 21l-77 -547q-6 -47 18 -77t70 -30h221q25 0 54.5 10t60 28t61 39.5t62 49.5t57.5 51.5t53 51t42.5 44t32.5 35
t17 19.5q14 14 39 14q31 0 47.5 -21.5t-0.5 -58.5l-178 -339l-31 -23h-1069q-11 0 -11.5 24.5t8.5 49t22 24.5q46 0 78 29t38 76l172 1227q7 49 -16.5 78.5t-69.5 29.5q-13 0 -15 24.5t5.5 49t18.5 24.5h1028l24 -22l82 -340q8 -34 -14.5 -57t-52.5 -23q-27 0 -35 14
q-72 111 -117 166q-133 162 -233 162h-181q-46 0 -78 -29.5t-38 -76.5z" />
    <glyph glyph-name="Ecircumflex" unicode="&#xca;" horiz-adv-x="1312" 
d="M647 1776l211 200h156l151 -200q14 -20 7 -36t-25 -16q-13 0 -27 11l-196 159l-244 -159q-32 -22 -47 -4.5t14 45.5zM584 854l344 66l24 -23l33 -137q-3 -27 -27 -27l-389 21l-77 -547q-6 -47 18 -77t70 -30h221q25 0 54.5 10t60 28t61 39.5t62 49.5t57.5 51.5t53 51
t42.5 44t32.5 35t17 19.5q14 14 39 14q31 0 47.5 -21.5t-0.5 -58.5l-178 -339l-31 -23h-1069q-11 0 -11.5 24.5t8.5 49t22 24.5q46 0 78 29t38 76l172 1227q7 49 -16.5 78.5t-69.5 29.5q-13 0 -15 24.5t5.5 49t18.5 24.5h1028l24 -22l82 -340q8 -34 -14.5 -57t-52.5 -23
q-27 0 -35 14q-72 111 -117 166q-133 162 -233 162h-181q-46 0 -78 -29.5t-38 -76.5z" />
    <glyph glyph-name="Edieresis" unicode="&#xcb;" horiz-adv-x="1312" 
d="M743 1749q-81 0 -105 61q-21 53 13 107q41 65 125 65q81 0 105 -61q21 -53 -13 -107q-41 -65 -125 -65zM1063 1749q-80 0 -104 61q-21 54 14 108q41 64 123 64q81 0 105 -61q21 -53 -13 -107q-41 -65 -125 -65zM584 854l344 66l24 -23l33 -137q-3 -27 -27 -27l-389 21
l-77 -547q-6 -47 18 -77t70 -30h221q25 0 54.5 10t60 28t61 39.5t62 49.5t57.5 51.5t53 51t42.5 44t32.5 35t17 19.5q14 14 39 14q31 0 47.5 -21.5t-0.5 -58.5l-178 -339l-31 -23h-1069q-11 0 -11.5 24.5t8.5 49t22 24.5q46 0 78 29t38 76l172 1227q7 49 -16.5 78.5
t-69.5 29.5q-13 0 -15 24.5t5.5 49t18.5 24.5h1028l24 -22l82 -340q8 -34 -14.5 -57t-52.5 -23q-27 0 -35 14q-72 111 -117 166q-133 162 -233 162h-181q-46 0 -78 -29.5t-38 -76.5z" />
    <glyph glyph-name="Igrave" unicode="&#xcc;" horiz-adv-x="618" 
d="M428 1876q-16 16 -0.5 45t48 51t46.5 6l183 -184q21 -19 -1 -48t-49 -11zM664 1430l-172 -1223q-6 -49 18 -79t70 -30q13 0 14.5 -24.5t-6.5 -49t-19 -24.5h-520q-11 0 -11.5 24.5t8.5 49t22 24.5q46 0 78 30t38 79l172 1223q7 49 -16.5 78.5t-69.5 29.5q-13 0 -15 24.5
t5.5 49t18.5 24.5h520q11 0 12 -24.5t-7.5 -49t-21.5 -24.5q-46 0 -78.5 -29.5t-39.5 -78.5z" />
    <glyph glyph-name="Iacute" unicode="&#xcd;" horiz-adv-x="618" 
d="M719 1878l-268 -141q-22 -10 -35.5 -1.5t-13.5 28.5t16 32l235 184q17 16 44 -6t34 -51t-12 -45zM664 1430l-172 -1223q-6 -49 18 -79t70 -30q13 0 14.5 -24.5t-6.5 -49t-19 -24.5h-520q-11 0 -11.5 24.5t8.5 49t22 24.5q46 0 78 30t38 79l172 1223q7 49 -16.5 78.5
t-69.5 29.5q-13 0 -15 24.5t5.5 49t18.5 24.5h520q11 0 12 -24.5t-7.5 -49t-21.5 -24.5q-46 0 -78.5 -29.5t-39.5 -78.5z" />
    <glyph glyph-name="Icircumflex" unicode="&#xce;" horiz-adv-x="618" 
d="M301 1776l209 200h156l151 -200q14 -20 7 -36t-25 -16q-13 0 -27 11l-197 159l-241 -159q-32 -22 -47 -4.5t14 45.5zM664 1430l-172 -1223q-6 -49 18 -79t70 -30q13 0 14.5 -24.5t-6.5 -49t-19 -24.5h-520q-11 0 -11.5 24.5t8.5 49t22 24.5q46 0 78 30t38 79l172 1223
q7 49 -16.5 78.5t-69.5 29.5q-13 0 -15 24.5t5.5 49t18.5 24.5h520q11 0 12 -24.5t-7.5 -49t-21.5 -24.5q-46 0 -78.5 -29.5t-39.5 -78.5z" />
    <glyph glyph-name="Idieresis" unicode="&#xcf;" horiz-adv-x="618" 
d="M395 1749q-81 0 -105 61q-21 53 13 107q41 65 125 65q81 0 105 -61q21 -53 -13 -107q-41 -65 -125 -65zM715 1749q-80 0 -104 61q-21 54 14 108q41 64 123 64q81 0 105 -61q21 -53 -13 -107q-41 -65 -125 -65zM664 1430l-172 -1223q-6 -49 18 -79t70 -30q13 0 14.5 -24.5
t-6.5 -49t-19 -24.5h-520q-11 0 -11.5 24.5t8.5 49t22 24.5q46 0 78 30t38 79l172 1223q7 49 -16.5 78.5t-69.5 29.5q-13 0 -15 24.5t5.5 49t18.5 24.5h520q11 0 12 -24.5t-7.5 -49t-21.5 -24.5q-46 0 -78.5 -29.5t-39.5 -78.5z" />
    <glyph glyph-name="Eth" unicode="&#xd0;" horiz-adv-x="1456" 
d="M264 711h-96q-30 0 -37.5 28t8.5 56t43 28h97l86 607q7 49 -16.5 78.5t-69.5 29.5q-13 0 -15.5 24.5t5 49t18.5 24.5q250 0 398 1t276 1q293 0 452 -209q134 -177 137 -451q2 -268 -120 -511q-127 -251 -341 -373q-163 -94 -356 -94h-676q-11 0 -11.5 24.5t8.5 49
t22 24.5q46 0 78.5 29t38.5 76zM588 100h155q169 0 301 207q123 192 170 478q47 287 -10 496q-56 209 -198 247q-30 8 -62 8h-156q-46 0 -78 -29.5t-38 -76.5l-86 -607h266q27 0 36 -28t-5.5 -56t-44.5 -28h-267l-71 -504q-6 -47 18 -77t70 -30z" />
    <glyph glyph-name="Ntilde" unicode="&#xd1;" horiz-adv-x="1556" 
d="M1329 1884q-92 -108 -186 -108q-51 0 -135 43t-121 43q-50 0 -92 -50q-13 -16 -31 -16q-15 0 -25.5 11.5t-7 33t26.5 45.5q72 92 157 92q47 0 134.5 -41t128.5 -41q60 0 114 62q21 25 47 12q26 -12 16 -46q-6 -19 -26 -40zM1585 1432l-192 -1381q-2 -2 -2 -6
q-3 -20 -11.5 -32.5t-19.5 -12.5h-252l-614 1286l-172 -1079q-6 -46 21 -77.5t73 -31.5q13 0 15 -24.5t-6 -49t-19 -24.5h-357q-11 0 -11.5 24.5t8.5 49t22 24.5q47 0 86 32.5t45 76.5l198 1225q7 47 -18 76.5t-72 29.5q-13 0 -15.5 24.5t5 49t18.5 24.5h381l617 -1276
l151 1072q6 46 -19.5 76t-72.5 30q-13 0 -15.5 24.5t5 49t18.5 24.5h357q11 0 12 -24.5t-7.5 -49t-21.5 -24.5q-50 0 -89.5 -31t-45.5 -75zM348 1538l8 -2q-2 2 -8 2z" />
    <glyph glyph-name="Ograve" unicode="&#xd2;" horiz-adv-x="1427" 
d="M1061 1735l-227 141q-16 16 -0.5 45t48 51t46.5 6l182 -184q21 -19 -0.5 -48t-48.5 -11zM713 -20q-290 0 -447 213q-135 182 -139 466q-3 278 120 531q126 262 340 390q166 99 361 99q291 0 448 -213q135 -182 138 -466q3 -278 -120 -531q-127 -261 -340 -390
q-166 -99 -361 -99zM932 1577q-166 0 -297 -212q-124 -199 -173 -499q-48 -299 7 -518q54 -219 195 -258q28 -8 59 -8q167 0 300 212q125 198 174 496t-5 517.5t-196 260.5q-30 9 -64 9z" />
    <glyph glyph-name="Oacute" unicode="&#xd3;" horiz-adv-x="1427" 
d="M1122 1878l-268 -141q-22 -10 -35.5 -1.5t-13.5 28.5t16 32l236 184q17 16 43.5 -6t34 -51t-12.5 -45zM713 -20q-290 0 -447 213q-135 182 -139 466q-3 278 120 531q126 262 340 390q166 99 361 99q291 0 448 -213q135 -182 138 -466q3 -278 -120 -531
q-127 -261 -340 -390q-166 -99 -361 -99zM932 1577q-166 0 -297 -212q-124 -199 -173 -499q-48 -299 7 -518q54 -219 195 -258q28 -8 59 -8q167 0 300 212q125 198 174 496t-5 517.5t-196 260.5q-30 9 -64 9z" />
    <glyph glyph-name="Ocircumflex" unicode="&#xd4;" horiz-adv-x="1427" 
d="M705 1776l210 200h156l152 -200q14 -20 6.5 -36t-25.5 -16q-12 0 -26 11l-197 159l-244 -159q-32 -22 -46.5 -4.5t14.5 45.5zM713 -20q-290 0 -447 213q-135 182 -139 466q-3 278 120 531q126 262 340 390q166 99 361 99q291 0 448 -213q135 -182 138 -466
q3 -278 -120 -531q-127 -261 -340 -390q-166 -99 -361 -99zM932 1577q-166 0 -297 -212q-124 -199 -173 -499q-48 -299 7 -518q54 -219 195 -258q28 -8 59 -8q167 0 300 212q125 198 174 496t-5 517.5t-196 260.5q-30 9 -64 9z" />
    <glyph glyph-name="Otilde" unicode="&#xd5;" horiz-adv-x="1427" 
d="M1264 1884q-92 -108 -187 -108q-51 0 -135 43t-121 43q-50 0 -92 -50q-13 -16 -31 -16q-15 0 -25.5 11.5t-7 33t26.5 45.5q72 92 158 92q47 0 134 -41t128 -41q61 0 115 62q21 25 47 12q26 -12 16 -46q-6 -19 -26 -40zM713 -20q-290 0 -447 213q-135 182 -139 466
q-3 278 120 531q126 262 340 390q166 99 361 99q291 0 448 -213q135 -182 138 -466q3 -278 -120 -531q-127 -261 -340 -390q-166 -99 -361 -99zM932 1577q-166 0 -297 -212q-124 -199 -173 -499q-48 -299 7 -518q54 -219 195 -258q28 -8 59 -8q167 0 300 212
q125 198 174 496t-5 517.5t-196 260.5q-30 9 -64 9z" />
    <glyph glyph-name="Odieresis" unicode="&#xd6;" horiz-adv-x="1427" 
d="M801 1749q-81 0 -105 61q-21 53 13 107q41 65 125 65q81 0 105 -61q21 -53 -13 -107q-41 -65 -125 -65zM1120 1749q-80 0 -104 61q-21 54 14 108q41 64 123 64q81 0 105 -61q21 -53 -13 -107q-41 -65 -125 -65zM713 -20q-290 0 -447 213q-135 182 -139 466
q-3 278 120 531q126 262 340 390q166 99 361 99q291 0 448 -213q135 -182 138 -466q3 -278 -120 -531q-127 -261 -340 -390q-166 -99 -361 -99zM932 1577q-166 0 -297 -212q-124 -199 -173 -499q-48 -299 7 -518q54 -219 195 -258q28 -8 59 -8q167 0 300 212
q125 198 174 496t-5 517.5t-196 260.5q-30 9 -64 9z" />
    <glyph glyph-name="multiply" unicode="&#xd7;" horiz-adv-x="675" 
d="M442 733l226 197q10 10 26 10q38 0 65.5 -47.5t0.5 -71.5l-223 -196l168 -199q21 -24 -20 -71.5t-79 -47.5q-16 0 -24 10l-170 199l-226 -199q-8 -8 -24 -8q-38 0 -69 44.5t-1 72.5l227 199l-172 196q-23 28 20 72.5t83 44.5q14 0 22 -8z" />
    <glyph glyph-name="Oslash" unicode="&#xd8;" horiz-adv-x="1439" 
d="M1317 1690l-49 -97q108 -70 176 -179.5t91 -235t10.5 -265t-57.5 -271.5t-121.5 -253t-173 -211.5t-219.5 -144t-255 -53.5q-130 0 -223 38l-37 -73q-4 -11 -27 -8q-29 2 -56 14.5t-20 25.5l45 91q-107 71 -174 181t-89.5 235t-9.5 264.5t58 271t121.5 252t172.5 210.5
t219.5 143.5t254.5 53.5q124 0 222 -39l38 84q3 9 21 9q28 0 58.5 -14.5t23.5 -28.5zM938 1577q-82 0 -162 -65t-143 -171t-109.5 -245.5t-67 -282t-11 -288t54.5 -257.5l606 1233q-67 76 -168 76zM1171 1393l-606 -1235q67 -76 164 -76q83 0 164.5 65.5t144.5 171.5
t110 246t68 283t10.5 288t-55.5 257z" />
    <glyph glyph-name="Ugrave" unicode="&#xd9;" horiz-adv-x="1560" 
d="M899 1876q-16 16 -0.5 45t48 51t46.5 6l183 -184q21 -19 -1 -48t-49 -11zM539 608q-35 -254 40 -390t252 -136q206 0 347.5 141.5t173.5 380.5l114 828q6 46 -18.5 76t-71.5 30q-13 0 -15.5 24.5t5 49t18.5 24.5h357q11 0 12 -24.5t-7.5 -49t-21.5 -24.5q-50 0 -89.5 -31
t-45.5 -75l-121 -865q-47 -277 -227 -433t-455 -157q-379 -3 -510 256q-72 139 -38 418l108 779q7 49 -16.5 78.5t-69.5 29.5q-13 0 -15.5 24.5t5 49t18.5 24.5h520q11 0 12.5 -24.5t-7 -49t-21.5 -24.5q-46 0 -79 -29.5t-40 -78.5z" />
    <glyph glyph-name="Uacute" unicode="&#xda;" horiz-adv-x="1560" 
d="M1190 1878l-268 -141q-22 -10 -35.5 -1.5t-13.5 28.5t16 32l235 184q17 16 44 -6t34 -51t-12 -45zM539 608q-37 -265 43 -395.5t249 -130.5q201 0 344.5 139t176.5 383l114 828q5 42 -16 74t-74 32q-13 0 -15.5 24.5t5 49t18.5 24.5h357q11 0 12 -24.5t-7.5 -49
t-21.5 -24.5q-55 0 -92.5 -33.5t-42.5 -72.5l-121 -865q-31 -178 -118 -309t-231.5 -205.5t-332.5 -75.5q-379 -3 -510 256q-70 134 -38 418l108 779q5 43 -14 75.5t-72 32.5q-13 0 -15.5 24.5t5 49t18.5 24.5h520q11 0 12.5 -24.5t-7 -49t-21.5 -24.5q-53 0 -83.5 -33
t-35.5 -75z" />
    <glyph glyph-name="Ucircumflex" unicode="&#xdb;" horiz-adv-x="1560" 
d="M772 1776l209 200h156l151 -200q14 -20 7 -36t-25 -16q-13 0 -27 11l-196 159l-242 -159q-32 -22 -47 -4.5t14 45.5zM539 608q-35 -254 40 -390t252 -136q206 0 347.5 141.5t173.5 380.5l114 828q6 46 -18.5 76t-71.5 30q-13 0 -15.5 24.5t5 49t18.5 24.5h357
q11 0 12 -24.5t-7.5 -49t-21.5 -24.5q-50 0 -89.5 -31t-45.5 -75l-121 -865q-47 -277 -227 -433t-455 -157q-379 -3 -510 256q-72 139 -38 418l108 779q7 49 -16.5 78.5t-69.5 29.5q-13 0 -15.5 24.5t5 49t18.5 24.5h520q11 0 12.5 -24.5t-7 -49t-21.5 -24.5
q-46 0 -79 -29.5t-40 -78.5z" />
    <glyph glyph-name="Udieresis" unicode="&#xdc;" horiz-adv-x="1560" 
d="M866 1749q-81 0 -105 61q-21 53 13 107q41 65 125 65q81 0 105 -61q21 -53 -13 -107q-41 -65 -125 -65zM1186 1749q-80 0 -104 61q-21 54 14 108q41 64 123 64q81 0 105 -61q21 -53 -13 -107q-41 -65 -125 -65zM539 608q-35 -254 40 -390t252 -136q206 0 347.5 141.5
t173.5 380.5l114 828q6 46 -18.5 76t-71.5 30q-13 0 -15.5 24.5t5 49t18.5 24.5h357q11 0 12 -24.5t-7.5 -49t-21.5 -24.5q-50 0 -89.5 -31t-45.5 -75l-121 -865q-47 -277 -227 -433t-455 -157q-379 -3 -510 256q-72 139 -38 418l108 779q7 49 -16.5 78.5t-69.5 29.5
q-13 0 -15.5 24.5t5 49t18.5 24.5h520q11 0 12.5 -24.5t-7 -49t-21.5 -24.5q-46 0 -79 -29.5t-40 -78.5z" />
    <glyph glyph-name="Yacute" unicode="&#xdd;" horiz-adv-x="1499" 
d="M1159 1878l-268 -141q-22 -10 -35.5 -1.5t-13.5 28.5t16 32l236 184q17 16 43.5 -6t34 -51t-12.5 -45zM623 207l53 371l-324 858q-19 48 -43 75t-49 27q-13 0 -15.5 24.5t5 49t18.5 24.5h574q11 0 12 -24.5t-7.5 -49t-21.5 -24.5q-54 0 -93 -35.5t-30 -75.5l246 -700
l469 705q22 38 -8 72t-84 34q-13 0 -15.5 24.5t5 49t18.5 24.5h357q11 0 12 -24.5t-7.5 -49t-21.5 -24.5q-26 0 -74 -39t-73 -80l-539 -807l-57 -405q-6 -49 18 -79t70 -30q13 0 15 -24.5t-6 -49t-19 -24.5h-521q-11 0 -11.5 24.5t8.5 49t22 24.5q46 0 78.5 30t38.5 79z" />
    <glyph glyph-name="Thorn" unicode="&#xde;" horiz-adv-x="1427" 
d="M653 1432l17 -29h227q327 0 500 -163q132 -125 134 -306q3 -179 -121 -333q-144 -180 -398 -246q-125 -33 -267 -33h-247l-17 -119q-6 -47 18 -76t70 -29q13 0 15 -24.5t-6 -49t-19 -24.5h-520q-11 0 -12 24.5t8 49t22 24.5q46 0 78.5 29t38.5 76l172 1227
q7 49 -16.5 78.5t-69.5 29.5q-13 0 -15.5 24.5t5 49t18.5 24.5h520q11 0 12.5 -24.5t-7 -49t-21.5 -24.5q-46 0 -78.5 -29.5t-40.5 -76.5zM819 1303h-82q-46 0 -78 -30t-38 -77l-95 -668q-6 -47 18 -76.5t70 -29.5h82q197 0 341 145q120 121 154 287q35 171 -41 294
q-93 149 -313 155h-18z" />
    <glyph glyph-name="germandbls" unicode="&#xdf;" horiz-adv-x="1249" 
d="M854 973h-59q-35 0 -39 34q-3 33 22 54q14 12 31 12h74q54 24 95.5 73t62 107t20.5 119.5t-21 111t-70 80.5t-120 29q-61 -2 -116.5 -31t-92 -76t-56 -102t-12 -114t42.5 -107l-163 -1163h-414q-11 0 -12 24.5t8 49t22 24.5q46 0 78.5 30t38.5 79l135 956
q32 236 192.5 378t393.5 142q122 -1 215.5 -38t143 -94.5t66.5 -130t-3 -144t-77.5 -138t-145.5 -110.5q73 -27 124 -97.5t68.5 -163.5t11.5 -198t-53 -205.5t-120 -182t-193.5 -131.5t-269.5 -50q-11 0 -12 24.5t8 49t22 24.5q75 -2 139 57t103 150t58.5 200t13.5 206.5
t-42 170.5t-98 91z" />
    <glyph glyph-name="agrave" unicode="&#xe0;" horiz-adv-x="1269" 
d="M924 1325l-228 141q-16 16 -0.5 45t48.5 51.5t47 6.5l182 -185q21 -19 -0.5 -48t-48.5 -11zM745 1184q232 0 349.5 -84t95.5 -236l-72 -514q0 -2 -2.5 -17.5t-4 -27.5t-3.5 -30t-1 -31.5t4 -26.5t10 -20t18 -7q21 0 37.5 11.5t26 25.5t23 25.5t27.5 11.5q18 0 29.5 -11
t9.5 -26q-15 -102 -94.5 -171.5t-181.5 -69.5q-75 0 -131 39t-76 108q-56 -68 -154.5 -107.5t-210.5 -39.5q-195 0 -300.5 68.5t-90.5 185.5q10 67 52 124t104.5 99t137 78t154.5 68.5t151 63.5t132 69.5t93 80.5l6 35q17 122 -19 174.5t-133 52.5q-170 0 -211 -284
q-7 -50 -57 -77.5t-115 -27.5t-108.5 29.5t-36.5 81.5q25 171 172.5 274t369.5 103zM807 313l51 375q-41 -36 -106 -77.5t-117 -74t-103.5 -73t-84.5 -92t-41 -111.5q-9 -65 41 -104t124 -39q85 0 153.5 50t82.5 146z" />
    <glyph glyph-name="aacute" unicode="&#xe1;" horiz-adv-x="1269" 
d="M987 1468l-268 -141q-33 -18 -46.5 11t13.5 48l236 185q17 16 43 -6.5t33.5 -51.5t-11.5 -45zM745 1184q232 0 349.5 -84t95.5 -236l-72 -514q0 -2 -2.5 -17.5t-4 -27.5t-3.5 -30t-1 -31.5t4 -26.5t10 -20t18 -7q21 0 37.5 11.5t26 25.5t23 25.5t27.5 11.5q18 0 29.5 -11
t9.5 -26q-15 -102 -94.5 -171.5t-181.5 -69.5q-75 0 -131 39t-76 108q-56 -68 -154.5 -107.5t-210.5 -39.5q-195 0 -300.5 68.5t-90.5 185.5q10 67 52 124t104.5 99t137 78t154.5 68.5t151 63.5t132 69.5t93 80.5l6 35q17 122 -19 174.5t-133 52.5q-170 0 -211 -284
q-7 -50 -57 -77.5t-115 -27.5t-108.5 29.5t-36.5 81.5q25 171 172.5 274t369.5 103zM807 313l51 375q-41 -36 -106 -77.5t-117 -74t-103.5 -73t-84.5 -92t-41 -111.5q-9 -65 41 -104t124 -39q85 0 153.5 50t82.5 146z" />
    <glyph glyph-name="acircumflex" unicode="&#xe2;" horiz-adv-x="1269" 
d="M569 1366l209 201h156l151 -201q14 -20 7 -35.5t-25 -15.5q-15 0 -27 10l-196 160l-242 -160q-32 -22 -47 -4.5t14 45.5zM745 1184q232 0 349.5 -84t95.5 -236l-72 -514q0 -2 -2.5 -17.5t-4 -27.5t-3.5 -30t-1 -31.5t4 -26.5t10 -20t18 -7q21 0 37.5 11.5t26 25.5
t23 25.5t27.5 11.5q18 0 29.5 -11t9.5 -26q-15 -102 -94.5 -171.5t-181.5 -69.5q-75 0 -131 39t-76 108q-56 -68 -154.5 -107.5t-210.5 -39.5q-195 0 -300.5 68.5t-90.5 185.5q10 67 52 124t104.5 99t137 78t154.5 68.5t151 63.5t132 69.5t93 80.5l6 35q17 122 -19 174.5
t-133 52.5q-170 0 -211 -284q-7 -50 -57 -77.5t-115 -27.5t-108.5 29.5t-36.5 81.5q25 171 172.5 274t369.5 103zM807 313l51 375q-41 -36 -106 -77.5t-117 -74t-103.5 -73t-84.5 -92t-41 -111.5q-9 -65 41 -104t124 -39q85 0 153.5 50t82.5 146z" />
    <glyph glyph-name="atilde" unicode="&#xe3;" horiz-adv-x="1269" 
d="M1128 1475q-93 -109 -186 -109q-41 0 -89 21.5t-91.5 43t-75.5 21.5q-51 0 -92 -49q-21 -25 -46 -12q-26 12 -16 46q5 19 25 40q72 92 158 92q47 0 134 -41t128 -41q62 0 115 61q20 24 46 13q25 -11 17 -43q-5 -20 -27 -43zM745 1184q232 0 349.5 -84t95.5 -236l-72 -514
q0 -2 -2.5 -17.5t-4 -27.5t-3.5 -30t-1 -31.5t4 -26.5t10 -20t18 -7q21 0 37.5 11.5t26 25.5t23 25.5t27.5 11.5q18 0 29.5 -11t9.5 -26q-15 -102 -94.5 -171.5t-181.5 -69.5q-75 0 -131 39t-76 108q-56 -68 -154.5 -107.5t-210.5 -39.5q-195 0 -300.5 68.5t-90.5 185.5
q10 67 52 124t104.5 99t137 78t154.5 68.5t151 63.5t132 69.5t93 80.5l6 35q17 122 -19 174.5t-133 52.5q-170 0 -211 -284q-7 -50 -57 -77.5t-115 -27.5t-108.5 29.5t-36.5 81.5q25 171 172.5 274t369.5 103zM807 313l51 375q-41 -36 -106 -77.5t-117 -74t-103.5 -73
t-84.5 -92t-41 -111.5q-9 -65 41 -104t124 -39q85 0 153.5 50t82.5 146z" />
    <glyph glyph-name="adieresis" unicode="&#xe4;" horiz-adv-x="1269" 
d="M664 1339q-80 0 -105 61q-22 53 13 108q41 65 124 65q80 0 105 -61q22 -53 -13 -108q-41 -65 -124 -65zM983 1339q-79 0 -103 61q-22 53 13 108q41 65 123 65q80 0 105 -61q21 -53 -13 -108q-42 -65 -125 -65zM745 1184q232 0 349.5 -84t95.5 -236l-72 -514
q0 -2 -2.5 -17.5t-4 -27.5t-3.5 -30t-1 -31.5t4 -26.5t10 -20t18 -7q21 0 37.5 11.5t26 25.5t23 25.5t27.5 11.5q18 0 29.5 -11t9.5 -26q-15 -102 -94.5 -171.5t-181.5 -69.5q-75 0 -131 39t-76 108q-56 -68 -154.5 -107.5t-210.5 -39.5q-195 0 -300.5 68.5t-90.5 185.5
q10 67 52 124t104.5 99t137 78t154.5 68.5t151 63.5t132 69.5t93 80.5l6 35q17 122 -19 174.5t-133 52.5q-170 0 -211 -284q-7 -50 -57 -77.5t-115 -27.5t-108.5 29.5t-36.5 81.5q25 171 172.5 274t369.5 103zM807 313l51 375q-41 -36 -106 -77.5t-117 -74t-103.5 -73
t-84.5 -92t-41 -111.5q-9 -65 41 -104t124 -39q85 0 153.5 50t82.5 146z" />
    <glyph glyph-name="aring" unicode="&#xe5;" horiz-adv-x="1269" 
d="M817 1300q-90 0 -120 68q-25 59 9 122q39 72 123 83q13 2 27 2q91 0 121 -68q26 -59 -9 -122q-39 -72 -124 -83q-13 -2 -27 -2zM854 1559q-35 0 -57 -60t-16.5 -120.5t38.5 -61.5q36 -2 60 58.5t18 122t-43 61.5zM745 1184q232 0 349.5 -84t95.5 -236l-72 -514
q0 -2 -2.5 -17.5t-4 -27.5t-3.5 -30t-1 -31.5t4 -26.5t10 -20t18 -7q21 0 37.5 11.5t26 25.5t23 25.5t27.5 11.5q18 0 29.5 -11t9.5 -26q-15 -102 -94.5 -171.5t-181.5 -69.5q-75 0 -131 39t-76 108q-56 -68 -154.5 -107.5t-210.5 -39.5q-195 0 -300.5 68.5t-90.5 185.5
q10 67 52 124t104.5 99t137 78t154.5 68.5t151 63.5t132 69.5t93 80.5l6 35q17 122 -19 174.5t-133 52.5q-170 0 -211 -284q-7 -50 -57 -77.5t-115 -27.5t-108.5 29.5t-36.5 81.5q25 171 172.5 274t369.5 103zM807 313l51 375q-41 -36 -106 -77.5t-117 -74t-103.5 -73
t-84.5 -92t-41 -111.5q-9 -65 41 -104t124 -39q85 0 153.5 50t82.5 146z" />
    <glyph glyph-name="ae" unicode="&#xe6;" horiz-adv-x="1894" 
d="M457 -14q-198 0 -307.5 79t-90.5 209q15 111 125.5 204.5t290.5 152.5t397 71l23 156q17 123 -18.5 176t-133.5 51q-170 -3 -211 -284q-7 -50 -57 -77.5t-115 -27.5t-108.5 29.5t-36.5 81.5q25 171 173 274t370 103q276 0 385 -115q172 119 397 119q131 0 233 -64
t151.5 -174.5t31.5 -240.5q-15 -107 -131 -107h-627q-9 -179 84.5 -279t271.5 -100q88 0 165 31.5t118 83.5q27 31 45 31t29.5 -11t9.5 -26q-51 -151 -213 -251.5t-354 -100.5q-146 0 -257.5 59t-176.5 170q-75 -108 -194.5 -165.5t-268.5 -57.5zM1507 1077
q-88 -3 -174 -111t-121 -261h437q26 182 -11 278.5t-131 93.5zM858 600q-237 -18 -363 -145q-86 -87 -84 -186q2 -87 73 -128q42 -24 100 -24q91 0 156 52.5t77 135.5l45 320q0 -5 -2 -7v-12q-2 -2 -2 -6z" />
    <glyph glyph-name="ccedilla" unicode="&#xe7;" horiz-adv-x="1114" 
d="M1067 338q27 31 45 31t29.5 -11t9.5 -26q-51 -151 -213 -251.5t-354 -100.5q-68 0 -129 12l-33 -66q209 0 303 -104q68 -74 47 -167q-21 -90 -114 -140q-73 -39 -171 -39q-123 0 -188 49.5t-53 134.5q3 22 26.5 34.5t53.5 12.5t51 -13t18 -36q-10 -66 16 -101.5t83 -35.5
q74 0 118.5 70.5t25.5 150.5q-23 94 -123 130q-50 17 -114 17q-49 0 -34 41l39 76q-114 36 -191.5 120t-104 191t-21.5 227t59 234t135 206t209 148t278 56q206 0 327 -125t95 -311q-7 -50 -57 -77.5t-115 -27.5t-109 29.5t-37 81.5q25 172 -7.5 247t-129.5 72
q-57 -2 -116 -51t-100.5 -127t-71 -171.5t-24.5 -187t36.5 -170.5t113.5 -125t205 -48q76 0 158 40t129 101z" />
    <glyph glyph-name="egrave" unicode="&#xe8;" horiz-adv-x="1134" 
d="M627 1466q-16 16 -0.5 45t48 51.5t46.5 6.5l182 -185q21 -19 -0.5 -48t-48.5 -11zM449 602q-9 -179 84.5 -279t271.5 -100q88 0 164.5 31t117.5 84q27 31 46 31q18 0 29 -11t9 -26q-51 -151 -213 -251.5t-354 -100.5q-255 0 -389 171q-113 143 -107 355q6 211 124 388
q133 198 353 265q98 29 206 29q131 0 233 -64t151 -174.5t31 -240.5q-15 -107 -131 -107h-626zM461 705h426q28 189 -5 282t-124 90q-88 -3 -174 -111t-123 -261z" />
    <glyph glyph-name="eacute" unicode="&#xe9;" horiz-adv-x="1134" 
d="M918 1468l-269 -141q-33 -18 -46.5 11t13.5 48l236 185q17 16 43.5 -6.5t34 -51.5t-11.5 -45zM1075 602h-626q-9 -179 84.5 -279t271.5 -100q88 0 164.5 31t117.5 84q27 31 46 31q18 0 29 -11t9 -26q-51 -151 -213 -251.5t-354 -100.5q-255 0 -389 171q-113 143 -107 355
q6 211 124 388q133 198 353 265q98 29 206 29q131 0 233 -64t151 -174.5t31 -240.5q-15 -107 -131 -107zM461 705h426q28 190 -4.5 282.5t-124.5 89.5q-88 -3 -174 -111t-123 -261z" />
    <glyph glyph-name="ecircumflex" unicode="&#xea;" horiz-adv-x="1142" 
d="M508 1366l209 201h155l152 -201q14 -20 7 -35.5t-25 -15.5q-14 0 -27 10l-197 160l-241 -160q-32 -22 -47 -4.5t14 45.5zM457 602q-9 -179 84.5 -279t271.5 -100q88 0 165 31.5t118 83.5q27 31 45 31t29.5 -11t9.5 -26q-51 -151 -213.5 -251.5t-354.5 -100.5
q-254 0 -391 170q-115 142 -112 353t121 388q132 199 356 267q100 30 213 30q131 0 233 -64t151 -174.5t31 -240.5q-15 -107 -131 -107h-626zM469 705h426q28 189 -5 282t-124 90q-88 -3 -174 -111t-123 -261z" />
    <glyph glyph-name="edieresis" unicode="&#xeb;" horiz-adv-x="1134" 
d="M594 1339q-80 0 -105 61q-21 53 13 108q42 65 125 65q80 0 105 -61q21 -53 -13 -108q-42 -65 -125 -65zM913 1339q-79 0 -103 61q-22 53 13 108q41 65 123 65q80 0 105 -61q21 -53 -13 -108q-42 -65 -125 -65zM449 602q-9 -179 84.5 -279t271.5 -100q88 0 164.5 31
t117.5 84q27 31 46 31q18 0 29 -11t9 -26q-51 -151 -213 -251.5t-354 -100.5q-255 0 -389 171q-113 143 -107 355q6 211 124 388q133 198 353 265q98 29 206 29q131 0 233 -64t151 -174.5t31 -240.5q-15 -107 -131 -107h-626zM461 705h426q28 189 -5 282t-124 90
q-88 -3 -174 -111t-123 -261z" />
    <glyph glyph-name="igrave" unicode="&#xec;" horiz-adv-x="598" 
d="M360 1466q-16 16 -0.5 45t48.5 51.5t47 6.5l182 -185q21 -19 -0.5 -48t-48.5 -11zM174 207l80 571q7 49 -16.5 79t-69.5 30q-13 0 -16 23t4.5 47t21.5 28q124 36 205.5 68t194.5 90h34l-131 -936q-6 -49 18 -79t70 -30q13 0 15 -24.5t-6 -49t-19 -24.5h-520
q-11 0 -12 24.5t8 49t22 24.5q46 0 78.5 30t38.5 79z" />
    <glyph glyph-name="iacute" unicode="&#xed;" horiz-adv-x="598" 
d="M649 1468l-268 -141q-33 -18 -46.5 11t13.5 48l236 185q17 16 43 -6.5t33.5 -51.5t-11.5 -45zM174 207l80 571q7 49 -16.5 79t-69.5 30q-13 0 -16 23t4.5 47t21.5 28q115 31 198.5 64t201.5 94h34l-131 -936q-6 -49 18 -79t70 -30q13 0 15 -24.5t-6 -49t-19 -24.5h-520
q-11 0 -12 24.5t8 49t22 24.5q46 0 78.5 30t38.5 79z" />
    <glyph glyph-name="icircumflex" unicode="&#xee;" horiz-adv-x="598" 
d="M231 1366l209 201h156l154 -201q14 -20 6.5 -35.5t-25.5 -15.5q-17 0 -29 10l-196 160l-242 -160q-32 -22 -47 -4.5t14 45.5zM174 207l80 571q7 49 -16.5 79t-69.5 30q-13 0 -16 23t4.5 47t21.5 28q115 31 198.5 64t201.5 94h34l-131 -936q-6 -49 18 -79t70 -30
q13 0 15 -24.5t-6 -49t-19 -24.5h-520q-11 0 -12 24.5t8 49t22 24.5q46 0 78.5 30t38.5 79z" />
    <glyph glyph-name="idieresis" unicode="&#xef;" horiz-adv-x="598" 
d="M328 1339q-81 0 -106 61q-22 53 12 107q43 65 126 66q80 0 105 -61q22 -53 -13 -108q-41 -65 -124 -65zM647 1339q-79 0 -103 61q-22 53 13 108q41 65 123 65q80 0 105 -61q21 -53 -13 -108q-42 -65 -125 -65zM174 207l80 571q7 49 -16.5 79t-69.5 30q-13 0 -16 23
t4.5 47t21.5 28q124 36 205.5 68t194.5 90h34l-131 -936q-6 -49 18 -79t70 -30q13 0 15 -24.5t-6 -49t-19 -24.5h-520q-11 0 -12 24.5t8 49t22 24.5q46 0 78.5 30t38.5 79z" />
    <glyph glyph-name="eth" unicode="&#xf0;" horiz-adv-x="1165" 
d="M575 -20q-264 0 -392 173q-106 142 -89 353q16 205 139 374q136 188 346 243q75 20 156 20q54 0 119 -10q-52 135 -115 231l-323 -119q-26 -10 -43.5 9t-13 46.5t33.5 38.5l285 107q-60 66 -121 96q-19 2 -26 24.5t6.5 45t44.5 24.5q127 -18 258 -131l358 133
q27 9 45 -9.5t13.5 -46t-33.5 -38.5l-308 -114q132 -142 219 -334t87 -340q24 -145 -18.5 -288t-131 -249.5t-220 -172.5t-276.5 -66zM594 82q128 0 221 165q86 154 104 367q17 211 -46 331q-51 95 -140 95q-127 0 -221 -163q-88 -152 -108 -364q-21 -212 44 -333
q51 -98 146 -98z" />
    <glyph glyph-name="ntilde" unicode="&#xf1;" horiz-adv-x="1277" 
d="M1130 1475q-93 -109 -186 -109q-41 0 -89 21.5t-91.5 43t-75.5 21.5q-51 0 -92 -49q-21 -25 -46 -12q-26 12 -16 46q5 19 25 40q72 92 158 92q47 0 134 -41t128 -41q62 0 115 61q20 24 46 13q25 -11 17 -43q-5 -20 -27 -43zM174 207l80 571q7 49 -16.5 79t-69.5 30
q-13 0 -16 23t4.5 47t21.5 28q115 31 198.5 64t201.5 94h34l-16 -127q60 78 147.5 123t180.5 45q189 0 268 -98.5t51 -299.5l-82 -579q-6 -49 18 -79t70 -30q13 0 15 -24.5t-6 -49t-19 -24.5h-520q-11 0 -12 24.5t8 49t22 24.5q46 0 78.5 30t38.5 79l84 590
q13 102 -29.5 165.5t-122.5 61.5q-74 0 -134.5 -54t-82.5 -139l-88 -624q-6 -49 18 -79t70 -30q13 0 15 -24.5t-6 -49t-19 -24.5h-520q-11 0 -12 24.5t8 49t22 24.5q46 0 78.5 30t38.5 79z" />
    <glyph glyph-name="ograve" unicode="&#xf2;" horiz-adv-x="1142" 
d="M862 1325l-227 141q-16 16 -0.5 45t48 51.5t46.5 6.5l182 -185q21 -19 -0.5 -48t-48.5 -11zM565 -20q-261 0 -389 176q-106 146 -90 364q16 212 138 388q135 193 340 253q81 23 167 23q260 0 392 -175q109 -145 97 -361q-12 -211 -133 -388q-134 -194 -345 -255
q-85 -25 -177 -25zM584 82q127 0 220 169q88 159 108 382q19 221 -43 347q-50 101 -140 101q-126 0 -221 -168q-89 -158 -111 -378q-23 -222 40 -349q51 -104 147 -104z" />
    <glyph glyph-name="oacute" unicode="&#xf3;" horiz-adv-x="1142" 
d="M924 1468l-269 -141q-22 -10 -36 -1.5t-13.5 28.5t17.5 32l235 185q17 16 43.5 -6.5t34 -51.5t-11.5 -45zM565 -20q-261 0 -389 176q-106 146 -90 364q16 212 138 388q135 193 340 253q81 23 167 23q260 0 392 -175q109 -145 97 -361q-12 -211 -133 -388
q-134 -194 -345 -255q-85 -25 -177 -25zM584 82q127 0 220 169q88 159 108 382q19 221 -43 347q-50 101 -140 101q-126 0 -221 -168q-89 -158 -111 -378q-23 -222 40 -349q51 -104 147 -104z" />
    <glyph glyph-name="ocircumflex" unicode="&#xf4;" horiz-adv-x="1142" 
d="M506 1366l209 201h157l152 -201q14 -20 7 -35.5t-25 -15.5q-14 0 -27 10l-197 160l-243 -160q-32 -22 -47 -4.5t14 45.5zM565 -20q-261 0 -389 176q-106 146 -90 364q16 212 138 388q135 193 340 253q81 23 167 23q260 0 392 -175q109 -145 97 -361q-12 -211 -133 -388
q-134 -194 -345 -255q-85 -25 -177 -25zM584 82q127 0 220 169q88 159 108 382q19 221 -43 347q-50 101 -140 101q-126 0 -221 -168q-89 -158 -111 -378q-23 -222 40 -349q51 -104 147 -104z" />
    <glyph glyph-name="otilde" unicode="&#xf5;" horiz-adv-x="1142" 
d="M1065 1475q-93 -109 -186 -109q-51 0 -135 43t-121 43q-52 0 -93 -49q-21 -25 -46 -12q-26 12 -16 46q6 19 26 40q72 92 157 92q47 0 134 -41t128 -41q62 0 115 61q20 24 46 13t18 -43q-5 -20 -27 -43zM565 -20q-261 0 -389 176q-106 146 -90 364q16 212 138 388
q135 193 340 253q81 23 167 23q260 0 392 -175q109 -145 97 -361q-12 -211 -133 -388q-134 -194 -345 -255q-85 -25 -177 -25zM584 82q127 0 220 169q88 159 108 382q19 221 -43 347q-50 101 -140 101q-126 0 -221 -168q-89 -158 -111 -378q-23 -222 40 -349
q51 -104 147 -104z" />
    <glyph glyph-name="odieresis" unicode="&#xf6;" horiz-adv-x="1142" 
d="M602 1339q-80 0 -105 61q-21 53 13 108q42 65 125 65q80 0 105 -61q21 -53 -13 -108q-42 -65 -125 -65zM922 1339q-79 0 -104 61q-21 53 13 108q41 65 123 65q80 0 105 -61q22 -53 -13 -108q-41 -65 -124 -65zM565 -20q-261 0 -389 176q-106 146 -90 364q16 212 138 388
q135 193 340 253q81 23 167 23q260 0 392 -175q109 -145 97 -361q-12 -211 -133 -388q-134 -194 -345 -255q-85 -25 -177 -25zM584 82q127 0 220 169q88 159 108 382q19 221 -43 347q-50 101 -140 101q-126 0 -221 -168q-89 -158 -111 -378q-23 -222 40 -349
q51 -104 147 -104z" />
    <glyph glyph-name="divide" unicode="&#xf7;" horiz-adv-x="845" 
d="M532 825q-95 0 -125 78q-26 68 11 145q37 80 113 101q21 6 44 6q94 0 125 -76q28 -68 -7 -146q-37 -80 -115 -102q-22 -6 -46 -6zM856 547h-711q-30 0 -35.5 38.5t12 76.5t44.5 38h711q27 0 34 -38t-9 -76.5t-46 -38.5zM432 113q-94 0 -124 77q-27 67 9 145
q38 80 114 101q21 6 44 6q94 0 125 -77q28 -67 -7 -144q-36 -80 -113 -102q-23 -6 -48 -6z" />
    <glyph glyph-name="oslash" unicode="&#xf8;" horiz-adv-x="1150" 
d="M569 -20q-81 0 -163 20l-29 -55q-4 -12 -27 -8q-29 2 -56 14.5t-20 25.5l33 64q-86 49 -140 126t-72.5 165.5t-9 187.5t44.5 193t95 180t135.5 150.5t173 102.5t201.5 38q62 0 125 -13l33 64q3 8 20 8q27 0 57 -14.5t23 -28.5l-28 -61q96 -43 158.5 -117.5t87.5 -163
t20 -189.5t-38 -198t-93 -186.5t-138 -157t-180 -107.5t-213 -40zM414 260l393 801q-29 20 -74 20q-63 0 -124.5 -53t-106 -138.5t-75.5 -194.5t-33.5 -220t20.5 -215zM588 82q68 0 133.5 61.5t110 162t71 216t21 235.5t-44.5 210l-408 -830q46 -55 117 -55z" />
    <glyph glyph-name="ugrave" unicode="&#xf9;" horiz-adv-x="1347" 
d="M735 1466q-16 16 -0.5 45t48 51.5t46.5 6.5l183 -185q21 -19 -0.5 -48t-48.5 -11zM168 887q-13 0 -16 23t4.5 47t21.5 28q115 31 198.5 64t201.5 94h34l-108 -776q-14 -102 28 -165t123 -63q83 1 147.5 67t78.5 161l57 411q7 49 -16.5 79t-69.5 30q-13 0 -16 23t4.5 47
t21.5 28q115 31 198.5 64t201.5 94h34l-110 -793q0 -3 -2.5 -17.5t-4.5 -27t-3.5 -30.5t-1 -31.5t3.5 -26.5t10 -20t18 -7q26 0 45.5 18.5t36 37t33.5 18.5q18 0 29.5 -11t9.5 -26q-15 -101 -95.5 -171t-181.5 -70q-88 0 -146.5 51t-70.5 139q-58 -92 -150.5 -144
t-197.5 -52q-191 0 -269.5 98t-49.5 299l55 401q7 49 -16.5 79t-69.5 30z" />
    <glyph glyph-name="uacute" unicode="&#xfa;" horiz-adv-x="1347" 
d="M1026 1468l-268 -141q-33 -18 -46.5 11t13.5 48l236 185q17 16 43 -6.5t33.5 -51.5t-11.5 -45zM168 887q-13 0 -16 23t4.5 47t21.5 28q124 37 206 68.5t194 89.5h34l-108 -776q-14 -102 28 -165t123 -63q83 1 147.5 67t78.5 161l57 411q7 49 -16.5 79t-69.5 30
q-13 0 -16 23t4.5 47t21.5 28q124 37 206 68.5t194 89.5h34l-110 -793q0 -3 -2.5 -17.5t-4.5 -27t-3.5 -30.5t-1 -31.5t3.5 -26.5t10 -20t18 -7q26 0 45.5 18.5t36 37t33.5 18.5q18 0 29.5 -11t9.5 -26q-15 -101 -95.5 -171t-181.5 -70q-88 0 -146.5 51t-70.5 139
q-58 -92 -150.5 -144t-197.5 -52q-191 0 -269.5 98t-49.5 299l55 401q7 49 -16.5 79t-69.5 30z" />
    <glyph glyph-name="ucircumflex" unicode="&#xfb;" horiz-adv-x="1347" 
d="M608 1366l209 201h156l151 -201q14 -20 7 -35.5t-25 -15.5q-14 0 -27 10l-196 160l-242 -160q-32 -22 -47 -4.5t14 45.5zM168 887q-13 0 -16 23t4.5 47t21.5 28q124 37 206 68.5t194 89.5h34l-108 -776q-14 -102 28 -165t123 -63q83 1 147.5 67t78.5 161l57 411
q7 49 -16.5 79t-69.5 30q-13 0 -16 23t4.5 47t21.5 28q124 37 206 68.5t194 89.5h34l-110 -793q0 -3 -2.5 -17.5t-4.5 -27t-3.5 -30.5t-1 -31.5t3.5 -26.5t10 -20t18 -7q26 0 45.5 18.5t36 37t33.5 18.5q18 0 29.5 -11t9.5 -26q-15 -101 -95.5 -171t-181.5 -70
q-88 0 -146.5 51t-70.5 139q-58 -92 -150.5 -144t-197.5 -52q-191 0 -269.5 98t-49.5 299l55 401q7 49 -16.5 79t-69.5 30z" />
    <glyph glyph-name="udieresis" unicode="&#xfc;" horiz-adv-x="1347" 
d="M702 1339q-80 0 -105 61q-21 53 13 108q42 65 125 65q80 0 105 -61q21 -53 -13 -108q-42 -65 -125 -65zM1022 1339q-79 0 -103 61q-22 53 13 108q41 65 123 65q80 0 105 -61q21 -53 -13 -108q-42 -65 -125 -65zM168 887q-13 0 -16 23t4.5 47t21.5 28q124 37 206 68.5
t194 89.5h34l-108 -776q-14 -102 28 -165t123 -63q83 1 147.5 67t78.5 161l57 411q7 49 -16.5 79t-69.5 30q-13 0 -16 23t4.5 47t21.5 28q124 37 206 68.5t194 89.5h34l-110 -793q0 -3 -2.5 -17.5t-4.5 -27t-3.5 -30.5t-1 -31.5t3.5 -26.5t10 -20t18 -7q26 0 45.5 18.5
t36 37t33.5 18.5q18 0 29.5 -11t9.5 -26q-15 -101 -95.5 -171t-181.5 -70q-88 0 -146.5 51t-70.5 139q-58 -92 -150.5 -144t-197.5 -52q-191 0 -269.5 98t-49.5 299l55 401q7 49 -16.5 79t-69.5 30z" />
    <glyph glyph-name="yacute" unicode="&#xfd;" horiz-adv-x="1288" 
d="M995 1468l-268 -141q-33 -18 -46.5 11t13.5 48l236 185q17 16 43 -6.5t33.5 -51.5t-11.5 -45zM475 0l-190 936q-7 41 -36 72t-63 34q-13 0 -14.5 25t7.5 50.5t22 25.5h520q13 0 15 -25.5t-6 -50.5t-21 -25q-36 -3 -52 -30.5t-10 -75.5l115 -766l332 678q41 82 27 136
t-77 60q-14 0 -16.5 25t6 49.5t21.5 24.5h350q13 0 15.5 -24.5t-5 -49.5t-20.5 -25q-35 -3 -71.5 -33t-59.5 -75q-47 -91 -217 -427t-263 -509q-34 -246 -177 -382t-367 -136q-141 0 -232.5 66.5t-79.5 158.5q7 52 59 81.5t117 29.5q64 0 106.5 -27.5t35.5 -77.5
q-6 -53 16 -89t60 -36q54 0 101 46.5t70.5 110.5t21 136t-39.5 119z" />
    <glyph glyph-name="thorn" unicode="&#xfe;" horiz-adv-x="1230" 
d="M657 1698h35l-82 -574q97 62 219 62q240 -1 367 -172q108 -145 100 -359q-7 -214 -124 -391q-131 -198 -347 -259q-85 -25 -180 -25q-114 0 -188 55l-47 -340q-6 -49 18 -79t70 -30q13 0 14.5 -24.5t-6.5 -49t-19 -24.5h-520q-11 0 -11.5 24.5t8.5 49t22 24.5q46 0 78 30
t38 79l230 1638q7 49 -16.5 79t-69.5 30q-13 0 -16 23t4.5 47t21.5 28q114 31 197.5 64t203.5 94zM588 965l-109 -777q40 -106 180 -106q120 0 214 163q91 156 115 375q25 223 -38 353q-52 105 -151 108q-136 -6 -211 -116z" />
    <glyph glyph-name="ydieresis" unicode="&#xff;" horiz-adv-x="1288" 
d="M672 1339q-80 0 -105 61q-21 53 13 108q42 65 125 65q80 0 105 -61q21 -53 -13 -108q-42 -65 -125 -65zM991 1339q-79 0 -103 61q-22 53 13 108q41 65 123 65q80 0 105 -61q21 -53 -13 -108q-42 -65 -125 -65zM475 0l-190 936q-7 41 -36 72t-63 34q-13 0 -14.5 25
t7.5 50.5t22 25.5h520q13 0 15 -25.5t-6 -50.5t-21 -25q-36 -3 -52 -30.5t-10 -75.5l115 -766l332 678q41 82 27 136t-77 60q-14 0 -16.5 25t6 49.5t21.5 24.5h350q13 0 15.5 -24.5t-5 -49.5t-20.5 -25q-35 -3 -71.5 -33t-59.5 -75q-47 -91 -217 -427t-263 -509
q-34 -246 -177 -382t-367 -136q-141 0 -232.5 66.5t-79.5 158.5q7 52 59 81.5t117 29.5q64 0 106.5 -27.5t35.5 -77.5q-6 -53 16 -89t60 -36q54 0 101 46.5t70.5 110.5t21 136t-39.5 119z" />
    <glyph glyph-name="Amacron" unicode="&#x100;" horiz-adv-x="1550" 
d="M1282 1868h-487q-34 0 -38 36t22 61q14 13 32 13h487q27 0 35.5 -27.5t-6.5 -55t-45 -27.5zM1014 481h-557l-133 -276q-20 -38 9 -72.5t83 -34.5q13 0 15 -24.5t-6 -49t-19 -24.5h-357q-11 0 -11.5 24.5t8.5 49t22 24.5q43 0 74.5 24t60.5 79l594 1231q23 40 0.5 73
t-72.5 33q-13 0 -15.5 24.5t5 49t18.5 24.5h391l283 -1435q11 -54 35.5 -78.5t68.5 -24.5q13 0 15 -24.5t-6 -49t-19 -24.5h-573q-11 0 -12 24.5t8 49t22 24.5q54 0 93 35.5t28 75.5zM854 1303l-348 -719h489z" />
    <glyph glyph-name="amacron" unicode="&#x101;" horiz-adv-x="1269" 
d="M1083 1458h-487q-34 0 -38 36t22 61q14 14 32 14h488q27 0 35 -27.5t-7 -55.5t-45 -28zM745 1184q232 0 349.5 -84t95.5 -236l-72 -514q0 -2 -2.5 -17.5t-4 -27.5t-3.5 -30t-1 -31.5t4 -26.5t10 -20t18 -7q21 0 37.5 11.5t26 25.5t23 25.5t27.5 11.5q18 0 29.5 -11
t9.5 -26q-15 -102 -94.5 -171.5t-181.5 -69.5q-75 0 -131 39t-76 108q-56 -68 -154.5 -107.5t-210.5 -39.5q-195 0 -300.5 68.5t-90.5 185.5q10 67 52 124t104.5 99t137 78t154.5 68.5t151 63.5t132 69.5t93 80.5l6 35q17 122 -19 174.5t-133 52.5q-170 0 -211 -284
q-7 -50 -57 -77.5t-115 -27.5t-108.5 29.5t-36.5 81.5q25 171 172.5 274t369.5 103zM807 313l51 375q-41 -36 -106 -77.5t-117 -74t-103.5 -73t-84.5 -92t-41 -111.5q-9 -65 41 -104t124 -39q85 0 153.5 50t82.5 146z" />
    <glyph glyph-name="Abreve" unicode="&#x102;" horiz-adv-x="1550" 
d="M1317 1903q-68 -79 -145 -120.5t-150 -41.5q-74 0 -138.5 41.5t-111.5 120.5q-24 38 -11 64t40 26q18 0 28 -17q30 -52 86 -79t125 -27q68 0 133 27t107 79q14 17 31 17q15 0 25.5 -11.5t7 -33t-26.5 -45.5zM1014 481h-557l-133 -276q-20 -38 9 -72.5t83 -34.5
q13 0 15 -24.5t-6 -49t-19 -24.5h-357q-11 0 -11.5 24.5t8.5 49t22 24.5q43 0 74.5 24t60.5 79l594 1231q23 40 0.5 73t-72.5 33q-13 0 -15.5 24.5t5 49t18.5 24.5h391l283 -1435q11 -54 35.5 -78.5t68.5 -24.5q13 0 15 -24.5t-6 -49t-19 -24.5h-573q-11 0 -12 24.5t8 49
t22 24.5q54 0 93 35.5t28 75.5zM854 1303l-348 -719h489z" />
    <glyph glyph-name="abreve" unicode="&#x103;" horiz-adv-x="1269" 
d="M1116 1493q-141 -162 -293 -162q-74 0 -139.5 41.5t-112.5 120.5q-22 38 -9 64t40 26q19 0 29 -16q30 -52 86.5 -79.5t124.5 -27.5q67 0 131.5 27.5t107.5 79.5q20 25 45 12q26 -12 16 -46q-6 -19 -26 -40zM745 1184q232 0 349.5 -84t95.5 -236l-72 -514q0 -2 -2.5 -17.5
t-4 -27.5t-3.5 -30t-1 -31.5t4 -26.5t10 -20t18 -7q21 0 37.5 11.5t26 25.5t23 25.5t27.5 11.5q18 0 29.5 -11t9.5 -26q-15 -102 -94.5 -171.5t-181.5 -69.5q-75 0 -131 39t-76 108q-56 -68 -154.5 -107.5t-210.5 -39.5q-195 0 -300.5 68.5t-90.5 185.5q10 67 52 124
t104.5 99t137 78t154.5 68.5t151 63.5t132 69.5t93 80.5l6 35q17 122 -19 174.5t-133 52.5q-170 0 -211 -284q-7 -50 -57 -77.5t-115 -27.5t-108.5 29.5t-36.5 81.5q25 171 172.5 274t369.5 103zM807 313l51 375q-41 -36 -106 -77.5t-117 -74t-103.5 -73t-84.5 -92
t-41 -111.5q-9 -65 41 -104t124 -39q85 0 153.5 50t82.5 146z" />
    <glyph glyph-name="Aogonek" unicode="&#x104;" horiz-adv-x="1550" 
d="M1014 481h-557l-133 -276q-20 -38 9 -72.5t83 -34.5q13 0 15 -24.5t-6 -49t-19 -24.5h-357q-11 0 -11.5 24.5t8.5 49t22 24.5q43 0 74.5 24t60.5 79l594 1231q23 40 0.5 73t-72.5 33q-13 0 -15.5 24.5t5 49t18.5 24.5h391l283 -1435q11 -54 35.5 -78.5t68.5 -24.5
q13 0 15 -24.5t-6 -49t-19 -24.5h-194q-123 -36 -187 -162q-52 -105 -37 -206q13 -89 72 -107q13 -4 27 -4q57 0 92.5 35.5t46.5 101.5q3 23 27.5 36t54.5 13t50 -12.5t17 -34.5q-12 -85 -91.5 -134.5t-202.5 -49.5q-74 0 -126.5 29.5t-77 75.5t-25 105t22.5 116.5t74 110.5
t121 87h-237q-11 0 -12 24.5t8 49t22 24.5q54 0 93 35.5t28 75.5zM854 1303l-348 -719h489z" />
    <glyph glyph-name="aogonek" unicode="&#x105;" horiz-adv-x="1269" 
d="M745 1184q232 0 349.5 -84t95.5 -236l-72 -514q0 -2 -2.5 -17.5t-4 -27.5t-3.5 -30t-1 -31.5t4 -26.5t10 -20t18 -7q21 0 37.5 11.5t26 25.5t23 25.5t27.5 11.5q18 0 29.5 -11t9.5 -26q-15 -104 -95.5 -172.5t-186.5 -68.5q-104 -48 -154 -162.5t-28.5 -208.5t96.5 -94
q57 0 92.5 35.5t46.5 101.5q3 23 27.5 36t54.5 13t50 -12.5t17 -34.5q-12 -85 -91.5 -134.5t-202.5 -49.5q-64 0 -113 22t-74.5 59.5t-36.5 84.5t1 99t38 101t75 92.5t112 71.5q-86 36 -111 127q-56 -68 -154.5 -107.5t-210.5 -39.5q-195 0 -300.5 68.5t-90.5 185.5
q10 67 52 124t104.5 99t137 78t154.5 68.5t151 63.5t132 69.5t93 80.5l6 35q17 122 -19 174.5t-133 52.5q-170 0 -211 -284q-7 -50 -57 -77.5t-115 -27.5t-108.5 29.5t-36.5 81.5q25 171 172.5 274t369.5 103zM807 313l51 375q-41 -36 -106 -77.5t-117 -74t-103.5 -73
t-84.5 -92t-41 -111.5q-9 -65 41 -104t124 -39q85 0 153.5 50t82.5 146z" />
    <glyph glyph-name="Cacute" unicode="&#x106;" horiz-adv-x="1425" 
d="M1122 1878l-268 -141q-22 -10 -35.5 -1.5t-13.5 28.5t16 32l236 184q17 16 43.5 -6t34 -51t-12.5 -45zM1477 535q-86 -249 -300 -403t-472 -152q-289 2 -445 212q-134 181 -135 461q-1 277 126 530q131 262 353 392q176 104 385 104q125 0 233 -39t180 -105t107 -157.5
t21 -193.5q-6 -50 -65 -77.5t-136 -27.5t-130 29.5t-46 81.5q22 157 -42.5 272t-174.5 115q-158 0 -295 -175q-128 -165 -183 -406q-59 -258 1 -454q64 -209 249 -262q54 -15 117 -16q158 -3 306.5 85.5t259.5 250.5q16 16 39 16q27 0 43.5 -22.5t3.5 -58.5z" />
    <glyph glyph-name="cacute" unicode="&#x107;" horiz-adv-x="1114" 
d="M909 1468l-268 -141q-33 -18 -46.5 11t13.5 48l236 185q17 16 43 -6.5t33.5 -51.5t-11.5 -45zM1067 338q27 31 45 31t29.5 -11t9.5 -26q-51 -151 -213 -251.5t-354 -100.5q-255 0 -390 171q-112 143 -107 355q6 212 125 389q133 198 355 264q96 29 203 29q206 0 327 -125
t95 -311q-7 -50 -57 -77.5t-115 -27.5t-109 29.5t-37 81.5q25 172 -7.5 247t-129.5 72q-57 -2 -116 -51t-100.5 -127t-71 -171.5t-24.5 -187t36.5 -170.5t113.5 -125t205 -48q73 0 153 40.5t134 100.5z" />
    <glyph glyph-name="Ccircumflex" unicode="&#x108;" horiz-adv-x="1425" 
d="M705 1776l208 200h156l152 -200q14 -20 6.5 -36t-25.5 -16q-12 0 -26 11l-197 159l-242 -159q-32 -22 -46.5 -4.5t14.5 45.5zM1477 535q-86 -249 -300 -403t-472 -152q-289 2 -445 212q-134 181 -135 461q-1 277 126 530q131 262 353 392q176 104 385 104q125 0 233 -39
t180 -105t107 -157.5t21 -193.5q-6 -50 -65 -77.5t-136 -27.5t-130 29.5t-46 81.5q22 157 -42.5 272t-174.5 115q-158 0 -295 -175q-128 -165 -183 -406q-59 -258 1 -454q64 -209 249 -262q54 -15 117 -16q158 -3 306.5 85.5t259.5 250.5q16 16 39 16q27 0 43.5 -22.5
t3.5 -58.5z" />
    <glyph glyph-name="ccircumflex" unicode="&#x109;" horiz-adv-x="1114" 
d="M492 1366l208 201h156l152 -201q14 -20 6.5 -35.5t-25.5 -15.5q-13 0 -26 10l-197 160l-242 -160q-32 -22 -46.5 -4.5t14.5 45.5zM1067 338q27 31 45 31t29.5 -11t9.5 -26q-51 -151 -213 -251.5t-354 -100.5q-255 0 -390 171q-112 143 -107 355q6 212 125 389
q133 198 355 264q96 29 203 29q206 0 327 -125t95 -311q-7 -50 -57 -77.5t-115 -27.5t-109 29.5t-37 81.5q25 172 -7.5 247t-129.5 72q-57 -2 -116 -51t-100.5 -127t-71 -171.5t-24.5 -187t36.5 -170.5t113.5 -125t205 -48q73 0 153 40.5t134 100.5z" />
    <glyph glyph-name="Cdotaccent" unicode="&#x10a;" horiz-adv-x="1425" 
d="M961 1769q-90 0 -120 68q-26 59 9 122q38 72 122 83q13 2 27 2q91 0 121 -68q26 -59 -8 -122q-39 -72 -124 -83q-13 -2 -27 -2zM1477 535q-86 -249 -300 -403t-472 -152q-289 2 -445 212q-134 181 -135 461q-1 277 126 530q131 262 353 392q176 104 385 104
q125 0 233 -39t180 -105t107 -157.5t21 -193.5q-6 -50 -65 -77.5t-136 -27.5t-130 29.5t-46 81.5q22 157 -42.5 272t-174.5 115q-158 0 -295 -175q-128 -165 -183 -406q-59 -258 1 -454q64 -209 249 -262q54 -15 117 -16q158 -3 306.5 85.5t259.5 250.5q16 16 39 16
q27 0 43.5 -22.5t3.5 -58.5z" />
    <glyph glyph-name="cdotaccent" unicode="&#x10b;" horiz-adv-x="1114" 
d="M741 1309q-91 0 -120 68q-25 59 10 122q39 72 124 82q12 2 25 2q92 0 121 -68q26 -59 -9 -122q-40 -72 -126 -82q-12 -2 -25 -2zM1067 338q27 31 45 31t29.5 -11t9.5 -26q-51 -151 -213 -251.5t-354 -100.5q-255 0 -390 171q-112 143 -107 355q6 212 125 389
q133 198 355 264q96 29 203 29q206 0 327 -125t95 -311q-7 -50 -57 -77.5t-115 -27.5t-109 29.5t-37 81.5q25 172 -7.5 247t-129.5 72q-57 -2 -116 -51t-100.5 -127t-71 -171.5t-24.5 -187t36.5 -170.5t113.5 -125t205 -48q73 0 153 40.5t134 100.5z" />
    <glyph glyph-name="Ccaron" unicode="&#x10c;" horiz-adv-x="1425" 
d="M733 1978q-14 20 -7.5 36t26.5 16q12 0 26 -11l197 -159l242 159q32 22 46 4.5t-14 -45.5l-209 -200h-155zM1477 535q-86 -249 -300 -403t-472 -152q-289 2 -445 212q-134 181 -135 461q-1 277 126 530q131 262 353 392q176 104 385 104q125 0 233 -39t180 -105
t107 -157.5t21 -193.5q-6 -50 -65 -77.5t-136 -27.5t-130 29.5t-46 81.5q22 157 -42.5 272t-174.5 115q-158 0 -295 -175q-128 -165 -183 -406q-59 -258 1 -454q64 -209 249 -262q54 -15 117 -16q158 -3 306.5 85.5t259.5 250.5q16 16 39 16q27 0 43.5 -22.5t3.5 -58.5z" />
    <glyph glyph-name="ccaron" unicode="&#x10d;" horiz-adv-x="1114" 
d="M666 1325l-152 201q-14 20 -8 35.5t24 15.5q16 0 29 -10l197 -160l241 160q31 22 46 4.5t-13 -45.5l-209 -201h-155zM1067 338q27 31 45 31t29.5 -11t9.5 -26q-51 -151 -213 -251.5t-354 -100.5q-255 0 -390 171q-112 143 -107 355q6 212 125 389q133 198 355 264
q96 29 203 29q206 0 327 -125t95 -311q-7 -50 -57 -77.5t-115 -27.5t-109 29.5t-37 81.5q25 172 -7.5 247t-129.5 72q-57 -2 -116 -51t-100.5 -127t-71 -171.5t-24.5 -187t36.5 -170.5t113.5 -125t205 -48q73 0 153 40.5t134 100.5z" />
    <glyph glyph-name="Dcaron" unicode="&#x10e;" horiz-adv-x="1437" 
d="M733 1935q-14 20 -7.5 36t26.5 16q12 0 26 -11l197 -159l242 159q32 22 46 4.5t-14 -45.5l-209 -200h-155zM725 0h-676q-11 0 -11.5 24.5t8.5 49t22 24.5q46 0 78 29t38 76l172 1227q7 49 -16.5 78.5t-69.5 29.5q-13 0 -15 24.5t5.5 49t18.5 24.5q250 0 397.5 1t275.5 1
q293 0 452 -209q134 -177 137 -451q3 -268 -120 -511q-126 -251 -340 -373q-163 -94 -356 -94zM735 100q169 0 301 207q123 192 170 478q47 287 -10 496q-56 209 -198 247q-30 8 -62 8h-156q-46 0 -78 -29.5t-38 -76.5l-172 -1223q-6 -47 18 -77t70 -30h155z" />
    <glyph glyph-name="dcaron" unicode="&#x10f;" horiz-adv-x="1437" 
d="M926 1057l37 276q7 49 -16.5 79t-69.5 30q-13 0 -16 23t4.5 47t21.5 28q114 31 197.5 64t203.5 94h35l-211 -1491q-6 -49 18 -79t70 -30q13 0 15 -24.5t-6 -49t-19 -24.5h-381l-4 31q-85 -51 -195 -51q-291 0 -424 190q-107 153 -85 380q20 211 140 384q124 181 301 232
q61 18 124 18q81 0 149 -33.5t111 -93.5zM1393 1253q32 32 79.5 100t16.5 68q-35 0 -59.5 30.5t-20.5 68.5q7 54 43 88t84 34q49 0 75.5 -32t20.5 -82q-9 -66 -75.5 -171t-124.5 -143q-22 -14 -37 1t-2 38zM797 145l108 779q-19 46 -58.5 73t-88.5 27q-145 0 -246 -161
q-91 -146 -109 -348q-17 -202 51 -325q60 -108 171 -108q106 0 172 63z" />
    <glyph glyph-name="Dcroat" unicode="&#x110;" horiz-adv-x="1456" 
d="M264 711h-96q-30 0 -37.5 28t8.5 56t43 28h97l86 607q7 49 -16.5 78.5t-69.5 29.5q-13 0 -15.5 24.5t5 49t18.5 24.5q250 0 398 1t276 1q293 0 452 -209q134 -177 137 -451q2 -268 -120 -511q-127 -251 -341 -373q-163 -94 -356 -94h-676q-11 0 -11.5 24.5t8.5 49
t22 24.5q46 0 78.5 29t38.5 76zM588 100h155q169 0 301 207q123 192 170 478q47 287 -10 496q-56 209 -198 247q-30 8 -62 8h-156q-46 0 -78 -29.5t-38 -76.5l-86 -607h266q27 0 36 -28t-5.5 -56t-44.5 -28h-267l-71 -504q-6 -47 18 -77t70 -30z" />
    <glyph glyph-name="dcroat" unicode="&#x111;" horiz-adv-x="1228" 
d="M963 1327v6q7 49 -16.5 79t-69.5 30q-13 0 -16 23t4.5 47t21.5 28q114 31 197.5 64t203.5 94h35l-53 -371h78q27 0 35 -27.5t-7 -55t-45 -27.5h-78l-141 -1010q-6 -49 18 -79t70 -30q13 0 15 -24.5t-6 -49t-19 -24.5h-381l-4 31q-85 -51 -195 -51q-291 0 -424 190
q-107 153 -85 380q20 211 140 384q124 181 301 232q61 18 124 18q81 0 149 -33.5t111 -93.5l20 160h-96q-34 0 -38 36t22 61q14 13 32 13h97zM797 145l108 779q-19 46 -58.5 73t-88.5 27q-145 0 -246 -161q-91 -146 -109 -348q-17 -202 51 -325q60 -108 171 -108
q106 0 172 63z" />
    <glyph glyph-name="Emacron" unicode="&#x112;" horiz-adv-x="1312" 
d="M1163 1868h-487q-34 0 -38 36t22 61q14 13 32 13h488q27 0 35 -27.5t-7 -55t-45 -27.5zM584 854l344 66l24 -23l33 -137q-3 -27 -27 -27l-389 21l-77 -547q-6 -47 18 -77t70 -30h221q25 0 54.5 10t60 28t61 39.5t62 49.5t57.5 51.5t53 51t42.5 44t32.5 35t17 19.5
q14 14 39 14q31 0 47.5 -21.5t-0.5 -58.5l-178 -339l-31 -23h-1069q-11 0 -11.5 24.5t8.5 49t22 24.5q46 0 78 29t38 76l172 1227q7 49 -16.5 78.5t-69.5 29.5q-13 0 -15 24.5t5.5 49t18.5 24.5h1028l24 -22l82 -340q8 -34 -14.5 -57t-52.5 -23q-27 0 -35 14
q-72 111 -117 166q-133 162 -233 162h-181q-46 0 -78 -29.5t-38 -76.5z" />
    <glyph glyph-name="emacron" unicode="&#x113;" horiz-adv-x="1134" 
d="M514 1370q-34 0 -38 36t22 61q14 14 32 14h488q27 0 35 -27.5t-7 -55.5t-45 -28h-487zM449 602q-9 -179 84.5 -279t271.5 -100q88 0 164.5 31t117.5 84q27 31 46 31q18 0 29 -11t9 -26q-51 -151 -213 -251.5t-354 -100.5q-255 0 -389 171q-113 143 -107 355
q6 211 124 388q133 198 353 265q98 29 206 29q131 0 233 -64t151 -174.5t31 -240.5q-15 -107 -131 -107h-626zM461 705h426q28 189 -5 282t-124 90q-88 -3 -174 -111t-123 -261z" />
    <glyph glyph-name="Ebreve" unicode="&#x114;" horiz-adv-x="1312" 
d="M1198 1903q-68 -79 -145 -120.5t-150 -41.5q-74 0 -138.5 41.5t-111.5 120.5q-24 38 -11 64t40 26q19 0 29 -17q30 -52 86 -79t125 -27q68 0 132 27t107 79q14 17 31 17q15 0 25.5 -11.5t7 -33t-26.5 -45.5zM584 854l344 66l24 -23l33 -137q-3 -27 -27 -27l-389 21
l-77 -547q-6 -47 18 -77t70 -30h221q25 0 54.5 10t60 28t61 39.5t62 49.5t57.5 51.5t53 51t42.5 44t32.5 35t17 19.5q14 14 39 14q31 0 47.5 -21.5t-0.5 -58.5l-178 -339l-31 -23h-1069q-11 0 -11.5 24.5t8.5 49t22 24.5q46 0 78 29t38 76l172 1227q7 49 -16.5 78.5
t-69.5 29.5q-13 0 -15 24.5t5.5 49t18.5 24.5h1028l24 -22l82 -340q8 -34 -14.5 -57t-52.5 -23q-27 0 -35 14q-72 111 -117 166q-133 162 -233 162h-181q-46 0 -78 -29.5t-38 -76.5z" />
    <glyph glyph-name="ebreve" unicode="&#x115;" horiz-adv-x="1134" 
d="M1047 1493q-141 -162 -293 -162q-74 0 -139.5 41.5t-112.5 120.5q-23 38 -10 64t40 26q19 0 29 -16q30 -52 86.5 -79.5t124.5 -27.5t132.5 27.5t107.5 79.5q20 25 45 12q26 -12 16 -46q-6 -19 -26 -40zM449 602q-9 -179 84.5 -279t271.5 -100q88 0 164.5 31t117.5 84
q27 31 46 31q18 0 29 -11t9 -26q-51 -151 -213 -251.5t-354 -100.5q-255 0 -389 171q-113 143 -107 355q6 211 124 388q133 198 353 265q98 29 206 29q131 0 233 -64t151 -174.5t31 -240.5q-15 -107 -131 -107h-626zM461 705h426q28 189 -5 282t-124 90q-88 -3 -174 -111
t-123 -261z" />
    <glyph glyph-name="Edotaccent" unicode="&#x116;" horiz-adv-x="1312" 
d="M897 1718q-90 0 -120 68q-25 59 9 122q39 72 123 83q13 2 27 2q91 0 121 -68q26 -59 -9 -122q-39 -72 -124 -83q-13 -2 -27 -2zM584 854l344 66l24 -23l33 -137q-3 -27 -27 -27l-389 21l-77 -547q-6 -47 18 -77t70 -30h221q25 0 54.5 10t60 28t61 39.5t62 49.5t57.5 51.5
t53 51t42.5 44t32.5 35t17 19.5q14 14 39 14q31 0 47.5 -21.5t-0.5 -58.5l-178 -339l-31 -23h-1069q-11 0 -11.5 24.5t8.5 49t22 24.5q46 0 78 29t38 76l172 1227q7 49 -16.5 78.5t-69.5 29.5q-13 0 -15 24.5t5.5 49t18.5 24.5h1028l24 -22l82 -340q8 -34 -14.5 -57
t-52.5 -23q-27 0 -35 14q-72 111 -117 166q-133 162 -233 162h-181q-46 0 -78 -29.5t-38 -76.5z" />
    <glyph glyph-name="edotaccent" unicode="&#x117;" horiz-adv-x="1142" 
d="M758 1309q-91 0 -120 68q-25 59 10 122q39 72 124 82q12 2 25 2q92 0 121 -68q26 -59 -9 -122q-40 -72 -126 -82q-12 -2 -25 -2zM457 602q-9 -179 84.5 -279t271.5 -100q88 0 165 31.5t118 83.5q27 31 45 31t29.5 -11t9.5 -26q-51 -151 -213.5 -251.5t-354.5 -100.5
q-254 0 -391 170q-115 142 -112 353t121 388q132 199 356 267q100 30 213 30q131 0 233 -64t151 -174.5t31 -240.5q-15 -107 -131 -107h-626zM469 705h426q28 189 -5 282t-124 90q-88 -3 -174 -111t-123 -261z" />
    <glyph glyph-name="Eogonek" unicode="&#x118;" horiz-adv-x="1312" 
d="M68 98q46 0 78 29t38 76l172 1227q7 49 -16.5 78.5t-69.5 29.5q-13 0 -15 24.5t5.5 49t18.5 24.5h1028l24 -22l82 -340q8 -34 -14.5 -57t-52.5 -23q-27 0 -35 14q-72 111 -117 166q-133 162 -233 162h-181q-46 0 -78 -29.5t-38 -76.5l-80 -576l344 66l24 -23l33 -137
q-3 -27 -27 -27l-389 21l-77 -547q-6 -47 18 -77t70 -30h221q25 0 54.5 10t60 28t61 39.5t62 49.5t57.5 51.5t53 51t42.5 44t32.5 35t17 19.5q14 14 39 14q31 0 47.5 -21.5t-0.5 -58.5l-178 -339l-31 -23h-293q-47 -44 -79.5 -108t-42 -127t-5 -119t30.5 -90.5t66 -34.5
q57 0 92.5 35.5t46.5 101.5q3 23 27.5 36t54.5 13t50 -12.5t17 -34.5q-12 -85 -92 -134.5t-203 -49.5q-74 0 -128 35.5t-76.5 93.5t-20.5 126t38.5 140t100.5 129h-653q-11 0 -11.5 24.5t8.5 49t22 24.5z" />
    <glyph glyph-name="eogonek" unicode="&#x119;" horiz-adv-x="1134" 
d="M680 -16q-50 -4 -76 -4q-255 0 -389 171q-113 143 -107 355q6 211 124 388q133 198 353 265q98 29 206 29q131 0 233 -64t151 -174.5t31 -240.5q-15 -107 -131 -107h-626q-9 -179 84.5 -279t271.5 -100q88 0 164.5 31t117.5 84q27 31 46 31q18 0 29 -11t9 -26
q-32 -96 -117.5 -178t-201.5 -127q-92 -64 -135 -187.5t-22 -221t93 -97.5q57 0 93 35.5t47 101.5q3 23 27.5 36t54.5 13t50 -12.5t17 -34.5q-12 -85 -92 -134.5t-203 -49.5q-89 0 -148 51.5t-74 126.5t15 166t105 164zM461 705h426q28 189 -5 282t-124 90q-88 -3 -174 -111
t-123 -261z" />
    <glyph glyph-name="Ecaron" unicode="&#x11a;" horiz-adv-x="1312" 
d="M823 1735l-151 200q-14 20 -7.5 36t25.5 16q13 0 27 -11l196 -159l242 159q32 22 46.5 4.5t-13.5 -45.5l-209 -200h-156zM584 854l344 66l24 -23l33 -137q-3 -27 -27 -27l-389 21l-77 -547q-6 -47 18 -77t70 -30h221q25 0 54.5 10t60 28t61 39.5t62 49.5t57.5 51.5t53 51
t42.5 44t32.5 35t17 19.5q14 14 39 14q31 0 47.5 -21.5t-0.5 -58.5l-178 -339l-31 -23h-1069q-11 0 -11.5 24.5t8.5 49t22 24.5q46 0 78 29t38 76l172 1227q7 49 -16.5 78.5t-69.5 29.5q-13 0 -15 24.5t5.5 49t18.5 24.5h1028l24 -22l82 -340q8 -34 -14.5 -57t-52.5 -23
q-27 0 -35 14q-72 111 -117 166q-133 162 -233 162h-181q-46 0 -78 -29.5t-38 -76.5z" />
    <glyph glyph-name="ecaron" unicode="&#x11b;" horiz-adv-x="1134" 
d="M522 1526q-14 20 -7.5 35.5t24.5 15.5q15 0 28 -10l197 -160l242 160q31 22 45.5 4.5t-13.5 -45.5l-209 -201h-155zM449 602q-9 -179 84.5 -279t271.5 -100q88 0 164.5 31t117.5 84q27 31 46 31q18 0 29 -11t9 -26q-51 -151 -213 -251.5t-354 -100.5q-255 0 -389 171
q-113 143 -107 355q6 211 124 388q133 198 353 265q98 29 206 29q131 0 233 -64t151 -174.5t31 -240.5q-15 -107 -131 -107h-626zM461 705h426q28 189 -5 282t-124 90q-88 -3 -174 -111t-123 -261z" />
    <glyph glyph-name="Gcircumflex" unicode="&#x11c;" horiz-adv-x="1505" 
d="M743 1776l211 200h156l152 -200q14 -20 6.5 -36t-25.5 -16q-12 0 -26 11l-197 159l-242 -159q-34 -22 -49 -4.5t14 45.5zM1126 291l54 375q6 49 -18 78.5t-70 29.5q-13 0 -15 24.5t6 49t19 24.5h487q11 0 12 -24.5t-8 -49t-22 -24.5t-23.5 -2t-18 -6.5t-13.5 -8.5
t-10.5 -13t-7 -13.5t-4.5 -16t-3 -15.5t-2.5 -17.5t-1.5 -15.5l-53 -375q-89 -154 -248.5 -234t-376.5 -80q-334 0 -517 219q-150 180 -162 459q-11 269 110 520q124 256 340 389q186 115 409 115q188 0 329.5 -63.5t210 -176.5t48.5 -255q-6 -50 -65.5 -77.5t-135.5 -27.5
q-77 0 -130 29.5t-46 81.5q13 99 -17 187t-93.5 141t-141.5 53q-155 0 -278 -181q-120 -174 -162 -435q-45 -279 24 -494q74 -228 257 -290q66 -22 143 -21q67 1 126.5 44.5t67.5 96.5z" />
    <glyph glyph-name="gcircumflex" unicode="&#x11d;" horiz-adv-x="1114" 
d="M492 1366l208 201h156l152 -201q14 -20 6.5 -35.5t-25.5 -15.5q-13 0 -26 10l-197 160l-242 -160q-32 -22 -46.5 -4.5t14.5 45.5zM1188 1071h-133q75 -75 104.5 -172t16 -192t-63.5 -188t-126.5 -163t-181.5 -113t-220 -42q-207 3 -326 104q-37 -33 -39 -47
q-5 -33 31.5 -54.5t100 -31t144.5 -19.5t166 -18.5t165 -29.5t140.5 -50.5t92.5 -83.5t22 -127q-22 -160 -189.5 -258t-416.5 -98q-242 0 -376.5 93t-112.5 247q7 52 59 81.5t117 29.5q64 0 106.5 -27.5t36.5 -77.5q-38 -103 12 -174.5t160 -71.5q113 0 196 57.5t95 145.5
q5 33 -17 55t-63 34.5t-95 21t-113.5 16.5t-118.5 19t-110.5 31.5t-88.5 49.5t-54 78t-6 113q14 71 109 147q-52 67 -68.5 157t0 180.5t66.5 179.5t123 157.5t177.5 111t221.5 42.5l471 -2q27 0 36 -28t-5.5 -55.5t-44.5 -27.5zM713 1081q-123 0 -207.5 -194.5t-63 -389
t155.5 -194.5q133 0 212 194.5t52.5 389t-149.5 194.5z" />
    <glyph glyph-name="Gbreve" unicode="&#x11e;" horiz-adv-x="1505" 
d="M1294 1903q-68 -79 -145 -120.5t-150 -41.5q-153 0 -249 162q-24 38 -11.5 64t39.5 26q19 0 29 -17q30 -52 86 -79t125 -27q68 0 132 27t107 79q14 17 31 17q15 0 25.5 -11.5t7 -33t-26.5 -45.5zM1126 291l54 375q6 49 -18 78.5t-70 29.5q-13 0 -15 24.5t6 49t19 24.5
h487q11 0 12 -24.5t-8 -49t-22 -24.5t-23.5 -2t-18 -6.5t-13.5 -8.5t-10.5 -13t-7 -13.5t-4.5 -16t-3 -15.5t-2.5 -17.5t-1.5 -15.5l-53 -375q-89 -154 -248.5 -234t-376.5 -80q-334 0 -517 219q-150 180 -162 459q-11 269 110 520q124 256 340 389q186 115 409 115
q188 0 329.5 -63.5t210 -176.5t48.5 -255q-6 -50 -65.5 -77.5t-135.5 -27.5q-77 0 -130 29.5t-46 81.5q13 99 -17 187t-93.5 141t-141.5 53q-155 0 -278 -181q-120 -174 -162 -435q-45 -279 24 -494q74 -228 257 -290q66 -22 143 -21q67 1 126.5 44.5t67.5 96.5z" />
    <glyph glyph-name="gbreve" unicode="&#x11f;" horiz-adv-x="1114" 
d="M1036 1493q-141 -162 -293 -162q-74 0 -139 41.5t-112 120.5q-23 38 -10 64t40 26q19 0 29 -16q30 -52 86.5 -79.5t124.5 -27.5q67 0 131.5 27.5t107.5 79.5q20 25 45 12q26 -12 16 -46q-6 -19 -26 -40zM1188 1071h-133q74 -75 104 -172.5t16.5 -192.5t-64 -188
t-126.5 -163t-181 -112.5t-220 -41.5q-210 3 -326 104q-36 -29 -39 -47q-5 -33 31.5 -54.5t100 -31t144.5 -19.5t166 -18.5t165 -29.5t140.5 -50.5t92.5 -83.5t22 -127q-22 -160 -189.5 -258t-416.5 -98q-242 0 -376.5 93t-112.5 247q7 52 59 81.5t117 29.5
q64 0 106.5 -27.5t36.5 -77.5q-38 -103 12 -174.5t160 -71.5q113 0 196 57.5t95 145.5q5 33 -17 55t-63 34.5t-95 21t-113.5 16.5t-118.5 19t-110.5 31.5t-88.5 49.5t-54 78t-6 113q15 74 109 147q-58 75 -74.5 169t5 184.5t76 177.5t130.5 152.5t176.5 105t206.5 39.5
l471 -2q27 0 36 -28t-5.5 -55.5t-44.5 -27.5zM713 1081q-123 0 -207.5 -194.5t-63 -389t155.5 -194.5q133 0 212 194.5t52.5 389t-149.5 194.5z" />
    <glyph glyph-name="Gdotaccent" unicode="&#x120;" horiz-adv-x="1505" 
d="M997 1743q-91 0 -120 68q-26 59 8 122q39 72 124 82q12 2 25 2q92 0 122 -68q26 -59 -9 -122q-39 -72 -125 -82q-12 -2 -25 -2zM1126 291l54 375q6 49 -18 78.5t-70 29.5q-13 0 -15 24.5t6 49t19 24.5h487q11 0 12 -24.5t-8 -49t-22 -24.5t-23.5 -2t-18 -6.5t-13.5 -8.5
t-10.5 -13t-7 -13.5t-4.5 -16t-3 -15.5t-2.5 -17.5t-1.5 -15.5l-53 -375q-89 -154 -248.5 -234t-376.5 -80q-334 0 -517 219q-150 180 -162 459q-11 269 110 520q124 256 340 389q186 115 409 115q188 0 329.5 -63.5t210 -176.5t48.5 -255q-6 -50 -65.5 -77.5t-135.5 -27.5
q-77 0 -130 29.5t-46 81.5q13 99 -17 187t-93.5 141t-141.5 53q-155 0 -278 -181q-120 -174 -162 -435q-45 -279 24 -494q74 -228 257 -290q66 -22 143 -21q67 1 126.5 44.5t67.5 96.5z" />
    <glyph glyph-name="gdotaccent" unicode="&#x121;" horiz-adv-x="1114" 
d="M739 1309q-91 0 -120 68q-25 59 10 122q39 72 124 82q12 2 25 2q92 0 121 -68q26 -59 -9 -122q-40 -72 -126 -82q-12 -2 -25 -2zM1188 1071h-133q74 -75 104 -172.5t16.5 -192.5t-64 -188t-126.5 -163t-181 -112.5t-220 -41.5q-210 3 -326 104q-36 -29 -39 -47
q-5 -33 31.5 -54.5t100 -31t144.5 -19.5t166 -18.5t165 -29.5t140.5 -50.5t92.5 -83.5t22 -127q-22 -160 -189.5 -258t-416.5 -98q-242 0 -376.5 93t-112.5 247q7 52 59 81.5t117 29.5q64 0 106.5 -27.5t36.5 -77.5q-38 -103 12 -174.5t160 -71.5q113 0 196 57.5t95 145.5
q5 33 -17 55t-63 34.5t-95 21t-113.5 16.5t-118.5 19t-110.5 31.5t-88.5 49.5t-54 78t-6 113q15 74 109 147q-58 75 -74.5 169t5 184.5t76 177.5t130.5 152.5t176.5 105t206.5 39.5l471 -2q27 0 36 -28t-5.5 -55.5t-44.5 -27.5zM713 1081q-123 0 -207.5 -194.5t-63 -389
t155.5 -194.5q133 0 212 194.5t52.5 389t-149.5 194.5z" />
    <glyph glyph-name="uni0122" unicode="&#x122;" horiz-adv-x="1505" 
d="M1126 291l54 375q6 49 -18 78.5t-70 29.5q-13 0 -15 24.5t6 49t19 24.5h487q11 0 12 -24.5t-8 -49t-22 -24.5t-23.5 -2t-18 -6.5t-13.5 -8.5t-10.5 -13t-7 -13.5t-4.5 -16t-3 -15.5t-2.5 -17.5t-1.5 -15.5l-53 -375q-89 -154 -248.5 -234t-376.5 -80q-334 0 -517 219
q-150 180 -162 459q-11 269 110 520q124 256 340 389q186 115 409 115q188 0 329.5 -63.5t210 -176.5t48.5 -255q-6 -50 -65.5 -77.5t-135.5 -27.5q-77 0 -130 29.5t-46 81.5q13 99 -17 187t-93.5 141t-141.5 53q-155 0 -278 -181q-120 -174 -162 -435q-45 -279 24 -494
q74 -228 257 -290q66 -22 143 -21q67 1 126.5 44.5t67.5 96.5zM594 -489q27 25 71 87q57 80 25 80q-35 0 -59.5 30.5t-18.5 68.5q7 54 42.5 88.5t82.5 34.5q49 0 77 -32.5t20 -82.5q-9 -66 -75.5 -170.5t-123.5 -142.5q-23 -14 -38.5 1t-2.5 38z" />
    <glyph glyph-name="uni0123" unicode="&#x123;" horiz-adv-x="1114" 
d="M834 1724l12 -333q1 -19 -29 -30t-72 -11q-41 0 -69.5 11t-24.5 30l99 333q4 18 18.5 27.5t30.5 9.5q35 0 35 -37zM1188 1071h-133q74 -75 104 -172.5t16.5 -192.5t-64 -188t-126.5 -163t-181 -112.5t-220 -41.5q-210 3 -326 104q-36 -29 -39 -47q-5 -33 31.5 -54.5
t100 -31t144.5 -19.5t166 -18.5t165 -29.5t140.5 -50.5t92.5 -83.5t22 -127q-22 -160 -189.5 -258t-416.5 -98q-242 0 -376.5 93t-112.5 247q7 52 59 81.5t117 29.5q64 0 106.5 -27.5t36.5 -77.5q-38 -103 12 -174.5t160 -71.5q113 0 196 57.5t95 145.5q5 33 -17 55
t-63 34.5t-95 21t-113.5 16.5t-118.5 19t-110.5 31.5t-88.5 49.5t-54 78t-6 113q15 74 109 147q-58 75 -74.5 169t5 184.5t76 177.5t130.5 152.5t176.5 105t206.5 39.5l471 -2q27 0 36 -28t-5.5 -55.5t-44.5 -27.5zM713 1081q-123 0 -207.5 -194.5t-63 -389t155.5 -194.5
q133 0 212 194.5t52.5 389t-149.5 194.5z" />
    <glyph glyph-name="Hcircumflex" unicode="&#x124;" horiz-adv-x="1501" 
d="M741 1776l211 200h156l152 -200q14 -20 6.5 -36t-25.5 -16q-13 0 -27 11l-196 159l-242 -159q-34 -22 -49 -4.5t14 45.5zM664 1430l-76 -541h575l76 541q7 49 -16.5 78.5t-69.5 29.5q-13 0 -15.5 24.5t5 49t18.5 24.5h520q11 0 12.5 -24.5t-7 -49t-21.5 -24.5
q-46 0 -79 -29.5t-40 -78.5l-172 -1223q-6 -49 18 -79t70 -30q13 0 15 -24.5t-6 -49t-19 -24.5h-520q-11 0 -12 24.5t8 49t22 24.5q46 0 78.5 30t38.5 79l82 579h-576l-81 -579q-6 -49 18 -79t70 -30q13 0 14.5 -24.5t-6.5 -49t-19 -24.5h-520q-11 0 -11.5 24.5t8.5 49
t22 24.5q46 0 78 30t38 79l172 1223q7 49 -16.5 78.5t-69.5 29.5q-13 0 -15 24.5t5.5 49t18.5 24.5h520q11 0 12 -24.5t-7.5 -49t-21.5 -24.5q-46 0 -78.5 -29.5t-39.5 -78.5z" />
    <glyph glyph-name="hcircumflex" unicode="&#x125;" horiz-adv-x="1280" 
d="M641 1827l209 201h156l151 -201q14 -20 8 -35.5t-24 -15.5q-15 0 -27 10l-196 160l-242 -160q-32 -22 -47.5 -4.5t12.5 45.5zM174 207l158 1126q7 49 -16.5 79t-69.5 30q-13 0 -16 23t4.5 47t21.5 28q114 31 197.5 64t203.5 94h35l-96 -684q60 80 147.5 125t182.5 45
q189 0 268 -98.5t51 -299.5l-82 -579q-6 -49 18 -79t70 -30q13 0 15 -24.5t-6 -49t-19 -24.5h-520q-11 0 -12 24.5t8 49t22 24.5q46 0 78.5 30t38.5 79l84 590q14 101 -28 164t-124 63t-145.5 -65t-77.5 -162l-84 -590q-6 -49 18 -79t70 -30q13 0 15 -24.5t-6 -49t-19 -24.5
h-520q-11 0 -12 24.5t8 49t22 24.5q46 0 78.5 30t38.5 79z" />
    <glyph glyph-name="Hbar" unicode="&#x126;" horiz-adv-x="1501" 
d="M664 1430l-13 -95h576l12 95q7 49 -16.5 78.5t-69.5 29.5q-13 0 -15.5 24.5t5 49t18.5 24.5h520q11 0 12.5 -24.5t-7 -49t-21.5 -24.5q-46 0 -79 -29.5t-40 -78.5l-172 -1223q-6 -49 18 -79t70 -30q13 0 15 -24.5t-6 -49t-19 -24.5h-520q-11 0 -12 24.5t8 49t22 24.5
q46 0 78.5 30t38.5 79l82 579h-576l-81 -579q-6 -49 18 -79t70 -30q13 0 14.5 -24.5t-6.5 -49t-19 -24.5h-520q-11 0 -11.5 24.5t8.5 49t22 24.5q46 0 78 30t38 79l172 1223q7 49 -16.5 78.5t-69.5 29.5q-13 0 -15 24.5t5.5 49t18.5 24.5h520q11 0 12 -24.5t-7.5 -49
t-21.5 -24.5q-46 0 -78.5 -29.5t-39.5 -78.5zM588 889h575l47 336h-575z" />
    <glyph glyph-name="hbar" unicode="&#x127;" horiz-adv-x="1280" 
d="M174 207l143 1012h-73q-30 0 -37.5 27.5t8.5 55t43 27.5h74v4q7 49 -16.5 79t-69.5 30q-13 0 -16 23t4.5 47t21.5 28q114 31 197.5 64t203.5 94h35l-53 -369h106q27 0 36 -27.5t-5.5 -55t-44.5 -27.5h-106l-29 -205q60 80 147.5 125t182.5 45q189 0 268 -98.5t51 -299.5
l-82 -579q-6 -49 18 -79t70 -30q13 0 15 -24.5t-6 -49t-19 -24.5h-520q-11 0 -12 24.5t8 49t22 24.5q46 0 78.5 30t38.5 79l84 590q14 101 -28 164t-124 63t-145.5 -65t-77.5 -162l-84 -590q-6 -49 18 -79t70 -30q13 0 15 -24.5t-6 -49t-19 -24.5h-520q-11 0 -12 24.5t8 49
t22 24.5q46 0 78.5 30t38.5 79z" />
    <glyph glyph-name="Itilde" unicode="&#x128;" horiz-adv-x="657" 
d="M879 1884q-92 -108 -187 -108q-52 0 -135.5 43t-120.5 43q-50 0 -92 -50q-13 -16 -31 -16q-16 0 -26.5 11.5t-6.5 33t27 45.5q72 92 158 92q47 0 134 -41t128 -41q61 0 115 62q21 25 47 12q26 -12 16 -46q-6 -19 -26 -40zM682 1430l-172 -1223q-6 -49 18 -79t70 -30
q13 0 15 -24.5t-6 -49t-19 -24.5h-520q-11 0 -12 24.5t8 49t22 24.5q46 0 78.5 30t38.5 79l172 1223q7 49 -16.5 78.5t-69.5 29.5q-13 0 -15.5 24.5t5 49t18.5 24.5h520q11 0 12.5 -24.5t-7 -49t-21.5 -24.5q-46 0 -79 -29.5t-40 -78.5z" />
    <glyph glyph-name="itilde" unicode="&#x129;" horiz-adv-x="657" 
d="M821 1475q-93 -109 -186 -109q-51 0 -135 43t-121 43q-51 0 -92 -49q-21 -25 -46 -12q-26 12 -16 46q5 19 25 40q72 92 158 92q47 0 134 -41t128 -41q61 0 114 61q20 24 46 13t18 -43q-5 -20 -27 -43zM205 207l80 571q7 49 -16.5 79t-69.5 30q-13 0 -16 23t4.5 47
t21.5 28q123 36 204.5 67.5t194.5 90.5h35l-131 -936q-6 -49 18 -79t70 -30q13 0 15 -24.5t-6 -49t-19 -24.5h-520q-11 0 -12 24.5t8 49t22 24.5q46 0 78.5 30t38.5 79z" />
    <glyph glyph-name="Imacron" unicode="&#x12a;" horiz-adv-x="622" 
d="M330 1868q-34 0 -38 36t22 61q14 13 32 13h488q27 0 35 -27.5t-7 -55t-45 -27.5h-487zM666 1430l-172 -1223q-6 -49 18 -79t70 -30q13 0 14.5 -24.5t-6.5 -49t-19 -24.5h-520q-11 0 -11.5 24.5t8.5 49t22 24.5q46 0 78 30t38 79l172 1223q7 49 -16.5 78.5t-69.5 29.5
q-13 0 -15 24.5t5.5 49t18.5 24.5h520q11 0 12 -24.5t-7.5 -49t-21.5 -24.5q-46 0 -78.5 -29.5t-39.5 -78.5z" />
    <glyph glyph-name="imacron" unicode="&#x12b;" horiz-adv-x="602" 
d="M262 1458q-34 0 -37 36q-4 36 22 61q14 14 32 14h487q27 0 35.5 -27.5t-6.5 -55.5t-45 -28h-488zM176 207l80 571q7 42 -13 75.5t-73 33.5q-13 0 -16 23t4.5 47t21.5 28q115 31 198.5 64t201.5 94h34l-131 -936q-5 -43 15 -76t73 -33q13 0 15 -24.5t-6 -49t-19 -24.5
h-520q-11 0 -12 24.5t8 49t22 24.5q53 0 82.5 33.5t34.5 75.5z" />
    <glyph glyph-name="Iogonek" unicode="&#x12e;" horiz-adv-x="618" 
d="M664 1430l-172 -1223q-6 -49 18 -79t70 -30q13 0 14.5 -24.5t-6.5 -49t-19 -24.5h-3h-3h-3h-3h-3h-3h-3h-3h-3h-3h-4h-3h-3h-3h-3h-3h-3h-4h-3h-3h-3h-3h-4h-3h-3h-4h-3h-3h-4h-3h-4h-3h-3h-4h-4h-3h-4h-4h-3h-4h-4h-4h-4h-5h-4h-4h-5h-5h-6h-6h-7h-9q-123 -36 -187 -162
q-52 -105 -37 -206q13 -89 72 -107q13 -4 27 -4q57 0 92.5 35.5t46.5 101.5q3 23 27.5 36t54.5 13t50.5 -12.5t17.5 -34.5q-12 -85 -92 -134.5t-203 -49.5q-135 0 -192 90q-51 81 -13 190q43 122 177 202q41 24 87 42h-254q-11 0 -11.5 24.5t8.5 49t22 24.5q46 0 78 30
t38 79l172 1223q7 49 -16.5 78.5t-69.5 29.5q-13 0 -15 24.5t5.5 49t18.5 24.5h520q11 0 12 -24.5t-7.5 -49t-21.5 -24.5q-46 0 -78.5 -29.5t-39.5 -78.5z" />
    <glyph glyph-name="iogonek" unicode="&#x12f;" horiz-adv-x="598" 
d="M463 1536q78 0 125.5 -44t38.5 -110q-9 -63 -68 -106t-137 -43q-82 0 -128.5 42t-37.5 107q7 61 69.5 107.5t137.5 46.5zM174 207l80 571q7 49 -16.5 79t-69.5 30q-13 0 -16 23t4.5 47t21.5 28q115 31 198.5 64t201.5 94h34l-131 -936q-6 -49 18 -79t70 -30
q13 0 15 -24.5t-6 -49t-19 -24.5h-3h-3h-3h-3h-3h-3h-3h-3h-3h-3h-3h-3h-3h-3h-4h-3h-3h-3h-3h-3h-3h-3h-4h-3h-3h-3h-3h-4h-3h-3h-4h-3h-3h-4h-3h-3h-4h-3h-4h-3h-4h-4h-3h-4h-4h-4h-3h-4h-5h-4h-4h-5h-4h-6h-5h-7h-8h-2q-123 -36 -187 -162q-52 -105 -37 -206
q13 -89 72 -107q13 -4 27 -4q57 0 93 35.5t47 101.5q3 23 27.5 36t54.5 13t50 -12.5t17 -34.5q-12 -85 -92 -134.5t-203 -49.5q-134 0 -191 89q-51 81 -13 188q44 123 179 203q43 25 93 44h-250q-11 0 -12 24.5t8 49t22 24.5q46 0 78.5 30t38.5 79z" />
    <glyph glyph-name="Idotaccent" unicode="&#x130;" horiz-adv-x="618" 
d="M551 1718q-90 0 -120 68q-25 59 9 122q39 72 123 83q13 2 27 2q91 0 121 -68q26 -59 -9 -122q-39 -72 -124 -83q-13 -2 -27 -2zM664 1430l-172 -1223q-5 -43 15 -76t73 -33q13 0 14.5 -24.5t-6.5 -49t-19 -24.5h-520q-11 0 -11.5 24.5t8.5 49t22 24.5q53 0 82 33t34 76
l172 1223q5 43 -14 75.5t-72 32.5q-13 0 -15 24.5t5.5 49t18.5 24.5h520q11 0 12 -24.5t-7.5 -49t-21.5 -24.5q-53 0 -83 -33t-35 -75z" />
    <glyph glyph-name="dotlessi" unicode="&#x131;" horiz-adv-x="598" 
d="M174 207l80 571q7 49 -16.5 79t-69.5 30q-13 0 -16 23t4.5 47t21.5 28q124 36 205.5 68t194.5 90h34l-131 -936q-6 -49 18 -79t70 -30q13 0 15 -24.5t-6 -49t-19 -24.5h-520q-11 0 -12 24.5t8 49t22 24.5q46 0 78.5 30t38.5 79z" />
    <glyph glyph-name="IJ" unicode="&#x132;" horiz-adv-x="1775" 
d="M664 1430l-172 -1223q-6 -49 18 -79t70 -30q13 0 14.5 -24.5t-6.5 -49t-19 -24.5h-520q-11 0 -11.5 24.5t8.5 49t22 24.5q46 0 78 30t38 79l172 1223q7 49 -16.5 78.5t-69.5 29.5q-13 0 -15 24.5t5.5 49t18.5 24.5h520q11 0 12 -24.5t-7.5 -49t-21.5 -24.5
q-46 0 -78.5 -29.5t-39.5 -78.5zM981 449q-25 -175 12 -271t129 -96q200 0 256 379l135 969q7 49 -16.5 78.5t-69.5 29.5q-13 0 -15 24.5t5.5 49t18.5 24.5h520q11 0 12 -24.5t-7.5 -49t-21.5 -24.5q-46 0 -78.5 -29.5t-39.5 -78.5l-115 -820q-55 -321 -212 -475.5
t-427 -154.5q-221 0 -339 132t-89 343q7 50 60.5 77t123.5 27t117.5 -29t40.5 -81z" />
    <glyph glyph-name="ij" unicode="&#x133;" horiz-adv-x="1003" 
d="M1165 1366q-11 -86 -76.5 -137t-140.5 -51q-58 0 -99 31.5t-48 90.5q59 29 82.5 80t11.5 98.5t-56.5 83t-109.5 35.5q-51 0 -95.5 -23t-69.5 -59t-34.5 -75.5t7 -78t57.5 -61.5q-25 -59 -74 -90.5t-106 -31.5q-76 0 -125.5 51t-38.5 137q15 107 93.5 184.5t185 113.5
t225.5 36t215.5 -36t153.5 -113.5t42 -184.5zM174 207l80 571q7 49 -16.5 79t-69.5 30q-13 0 -16 23t4.5 47t21.5 28q115 31 198.5 64t201.5 94h34l-131 -936q-6 -49 18 -79t70 -30q13 0 15 -24.5t-6 -49t-19 -24.5h-520q-11 0 -12 24.5t8 49t22 24.5q46 0 78.5 30t38.5 79z
M111 -293q7 52 59 81.5t117 29.5t106.5 -27.5t34.5 -77.5q-6 -53 16 -89t60 -36q55 0 102 46.5t70.5 111t21 136t-38.5 118.5l109 778q7 49 -16.5 79t-69.5 30q-13 0 -16 23t4.5 47t21.5 28q115 31 198.5 64t201.5 94h34l-159 -1143q-34 -246 -177.5 -382t-367.5 -136
q-140 0 -232 66.5t-79 158.5z" />
    <glyph glyph-name="Jcircumflex" unicode="&#x134;" horiz-adv-x="1222" 
d="M909 1776l209 200h156l151 -200q14 -20 7 -36t-25 -16q-13 0 -27 11l-196 159l-242 -159q-32 -22 -47 -4.5t14 45.5zM428 449q-25 -175 12 -271t129 -96q200 0 256 379l136 969q7 49 -17 78.5t-70 29.5q-13 0 -15 24.5t5.5 49t18.5 24.5h520q11 0 12 -24.5t-7.5 -49
t-21.5 -24.5q-46 0 -78.5 -29.5t-39.5 -78.5l-115 -820q-55 -321 -212 -475.5t-427 -154.5q-221 0 -340 132t-88 343q7 50 60.5 77t123.5 27t117.5 -29t40.5 -81z" />
    <glyph glyph-name="jcircumflex" unicode="&#x135;" horiz-adv-x="528" 
d="M170 1366l209 201h156l151 -201q14 -20 8 -35.5t-26 -15.5q-14 0 -27 10l-197 160l-241 -160q-32 -22 -47 -4.5t14 45.5zM-403 -293q7 52 59 81.5t117 29.5t106.5 -27.5t34.5 -77.5q-6 -53 16 -89t60 -36q55 0 102 46.5t70.5 111t21 136t-38.5 118.5l109 778
q7 49 -16.5 79t-69.5 30q-13 0 -16 23t4.5 47t21.5 28q124 36 205.5 68t194.5 90h34l-159 -1143q-34 -246 -177.5 -382t-367.5 -136q-140 0 -231.5 66.5t-79.5 158.5z" />
    <glyph glyph-name="uni0136" unicode="&#x136;" horiz-adv-x="1505" 
d="M49 0q-11 0 -11.5 24.5t8.5 49t22 24.5q46 0 78 30t38 79l172 1223q7 49 -16.5 78.5t-69.5 29.5q-13 0 -15 24.5t5.5 49t18.5 24.5h520q11 0 12 -24.5t-7.5 -49t-21.5 -24.5q-46 0 -78.5 -29.5t-39.5 -78.5l-89 -627l590 534q38 28 45.5 84.5t-17 102t-67.5 45.5
q-13 0 -16 16.5t4.5 33.5t20.5 17h448q13 0 16.5 -13t-3.5 -29t-21 -25l-545 -496l311 -866q14 -37 53 -70t76 -37q11 0 12 -25t-8 -50t-22 -25h-512q-13 0 -15 25t6 50t19 25q35 3 46.5 33t-3.5 74l-215 637l-225 -205l-61 -432q-6 -49 18 -79t70 -30q13 0 14.5 -24.5
t-6.5 -49t-19 -24.5h-520zM592 -489q27 25 71 87q57 80 25 80q-35 0 -59.5 30.5t-18.5 68.5q7 54 42.5 88.5t82.5 34.5q49 0 76.5 -32.5t19.5 -82.5q-9 -66 -75 -170.5t-123 -142.5q-23 -14 -38.5 1t-2.5 38z" />
    <glyph glyph-name="uni0137" unicode="&#x137;" horiz-adv-x="1329" 
d="M174 207l158 1126q7 42 -13 75.5t-73 33.5q-13 0 -16 23t4.5 47t21.5 28q114 31 197.5 64t203.5 94h35l-155 -1094l446 344q3 27 -2 51.5t-26.5 45t-57.5 20.5q-13 0 -15 24.5t6 49t19 24.5h449q20 0 16 -26q-4 -27 -26 -41l-385 -299l219 -590q12 -35 46.5 -70t73.5 -39
q13 0 15 -24.5t-6 -49t-19 -24.5h-520q-11 0 -12 24.5t8 49t22 24.5q41 4 57 38.5t3 70.5l-137 397l-195 -151l-35 -246q-5 -43 15 -76t73 -33q13 0 15 -24.5t-6 -49t-19 -24.5h-520q-11 0 -12 24.5t8 49t22 24.5q53 0 82.5 33.5t34.5 75.5zM504 -489q27 25 71 87
q57 80 25 80q-7 0 -19 3.5t-28.5 12t-26 30.5t-4.5 53q6 50 40 86.5t85 36.5q52 0 77 -34.5t19 -80.5q-10 -73 -78.5 -176t-119.5 -137q-23 -14 -38.5 1t-2.5 38z" />
    <glyph glyph-name="kgreenlandic" unicode="&#x138;" horiz-adv-x="1329" 
d="M174 207l84 592q5 42 -15 75t-73 33q-13 0 -16 23t4.5 47.5t21.5 28.5q116 31 199.5 63.5t202.5 93.5h34l-79 -559l446 344q3 27 -2 51.5t-26.5 45t-57.5 20.5q-13 0 -15 24.5t6 49t19 24.5h449q20 0 16 -26q-4 -27 -26 -41l-385 -299l219 -590q12 -35 46.5 -70t73.5 -39
q13 0 15 -24.5t-6 -49t-19 -24.5h-520q-11 0 -12 24.5t8 49t22 24.5q41 4 57 38.5t3 70.5l-137 397l-195 -151l-35 -246q-5 -43 15 -76t73 -33q13 0 15 -24.5t-6 -49t-19 -24.5h-520q-11 0 -12 24.5t8 49t22 24.5q53 0 82.5 33.5t34.5 75.5z" />
    <glyph glyph-name="Lacute" unicode="&#x139;" horiz-adv-x="1271" 
d="M840 1878l-269 -141q-22 -10 -35.5 -1.5t-13 28.5t16.5 32l235 184q17 16 44 -6t34 -51t-12 -45zM1108 23l-31 -23h-1028q-11 0 -11.5 24.5t8.5 49t22 24.5q53 0 82 33t34 76l172 1223q5 43 -14 75.5t-72 32.5q-13 0 -15 24.5t5.5 49t18.5 24.5h520q11 0 12 -24.5
t-7.5 -49t-21.5 -24.5q-53 0 -83 -33t-35 -75l-172 -1223q-5 -42 15 -74.5t73 -32.5h180q25 0 54.5 10t60 28t61 39.5t62 49.5t57.5 51.5t53 51t42.5 44t32.5 35t17 19.5q14 14 39 14q31 0 47.5 -21.5t-0.5 -58.5z" />
    <glyph glyph-name="lacute" unicode="&#x13a;" horiz-adv-x="598" 
d="M698 1868l-268 -142q-21 -10 -34.5 -1t-13.5 29t17 32l234 184q17 16 43.5 -6t34 -51t-12.5 -45zM174 207l158 1126q7 49 -16.5 79t-69.5 30q-13 0 -16 23t4.5 47t21.5 28q114 31 197.5 64t203.5 94h35l-211 -1491q-6 -49 18 -79t70 -30q13 0 15 -24.5t-6 -49t-19 -24.5
h-520q-11 0 -12 24.5t8 49t22 24.5q46 0 78.5 30t38.5 79z" />
    <glyph glyph-name="uni013B" unicode="&#x13b;" horiz-adv-x="1271" 
d="M1108 23l-31 -23h-1028q-11 0 -11.5 24.5t8.5 49t22 24.5q46 0 78 30t38 79l172 1223q7 49 -16.5 78.5t-69.5 29.5q-13 0 -15 24.5t5.5 49t18.5 24.5h520q11 0 12 -24.5t-7.5 -49t-21.5 -24.5q-46 0 -78.5 -29.5t-39.5 -78.5l-172 -1223q-6 -47 18 -77t70 -30h180
q25 0 54.5 10t60 28t61 39.5t62 49.5t57.5 51.5t53 51t42.5 44t32.5 35t17 19.5q14 14 39 14q31 0 47.5 -21.5t-0.5 -58.5zM477 -489q27 25 71 87q57 80 25 80q-35 0 -59 30.5t-18 68.5q7 54 42.5 88.5t82.5 34.5q49 0 76.5 -32.5t19.5 -82.5q-9 -66 -75.5 -170.5
t-123.5 -142.5q-23 -14 -38.5 1t-2.5 38z" />
    <glyph glyph-name="uni013C" unicode="&#x13c;" horiz-adv-x="598" 
d="M174 207l158 1126q7 49 -16.5 79t-69.5 30q-13 0 -16 23t4.5 47t21.5 28q114 31 197.5 64t203.5 94h35l-211 -1491q-6 -49 18 -79t70 -30q13 0 15 -24.5t-6 -49t-19 -24.5h-520q-11 0 -12 24.5t8 49t22 24.5q46 0 78.5 30t38.5 79zM139 -489q27 25 72 87q57 80 25 80
q-35 0 -59.5 30.5t-18.5 68.5q7 54 42.5 88.5t82.5 34.5q49 0 76.5 -32.5t19.5 -82.5q-9 -66 -75.5 -170.5t-123.5 -142.5q-23 -14 -38.5 1t-2.5 38z" />
    <glyph glyph-name="Lcaron" unicode="&#x13d;" horiz-adv-x="1271" 
d="M874 1247q31 31 78.5 99.5t16.5 68.5q-36 0 -60 30t-18 68q7 54 42.5 88.5t82.5 34.5q49 0 76.5 -32t19.5 -82q-9 -67 -75.5 -172t-123.5 -142q-22 -14 -37 1.5t-2 37.5zM1108 23l-31 -23h-1028q-11 0 -11.5 24.5t8.5 49t22 24.5q46 0 78 30t38 79l172 1223
q7 49 -16.5 78.5t-69.5 29.5q-13 0 -15 24.5t5.5 49t18.5 24.5h520q11 0 12 -24.5t-7.5 -49t-21.5 -24.5q-46 0 -78.5 -29.5t-39.5 -78.5l-172 -1223q-6 -47 18 -77t70 -30h180q25 0 54.5 10t60 28t61 39.5t62 49.5t57.5 51.5t53 51t42.5 44t32.5 35t17 19.5q14 14 39 14
q31 0 47.5 -21.5t-0.5 -58.5z" />
    <glyph glyph-name="lcaron" unicode="&#x13e;" horiz-adv-x="837" 
d="M174 207l158 1126q7 49 -16.5 79t-69.5 30q-13 0 -16 23t4.5 47t21.5 28q114 31 197.5 64t203.5 94h35l-211 -1491q-6 -49 18 -79t70 -30q13 0 15 -24.5t-6 -49t-19 -24.5h-520q-11 0 -12 24.5t8 49t22 24.5q46 0 78.5 30t38.5 79zM811 1309q31 31 78 99.5t16 68.5
q-35 0 -59 30t-19 68q7 54 43.5 88.5t83.5 34.5q49 0 76 -32.5t21 -82.5q-9 -66 -76 -170.5t-125 -142.5q-22 -14 -37 1t-2 38z" />
    <glyph glyph-name="Ldot" unicode="&#x13f;" horiz-adv-x="1271" 
d="M1108 23l-31 -23h-1028q-11 0 -11.5 24.5t8.5 49t22 24.5q46 0 78 30t38 79l172 1223q7 49 -16.5 78.5t-69.5 29.5q-13 0 -15 24.5t5.5 49t18.5 24.5h520q11 0 12 -24.5t-7.5 -49t-21.5 -24.5q-46 0 -78.5 -29.5t-39.5 -78.5l-172 -1223q-6 -47 18 -77t70 -30h180
q25 0 54.5 10t60 28t61 39.5t62 49.5t57.5 51.5t53 51t42.5 44t32.5 35t17 19.5q14 14 39 14q31 0 47.5 -21.5t-0.5 -58.5zM924 535q-93 0 -122 77q-26 68 11 145q37 80 112 100q21 5 42 5q92 0 123 -76q28 -67 -7 -144q-36 -79 -113 -101q-22 -6 -46 -6z" />
    <glyph glyph-name="ldot" unicode="&#x140;" horiz-adv-x="856" 
d="M174 207l158 1126q7 49 -16.5 79t-69.5 30q-13 0 -16 23t4.5 47t21.5 28q123 36 204.5 67.5t196.5 90.5h35l-211 -1491q-6 -49 18 -79t70 -30q13 0 15 -24.5t-6 -49t-19 -24.5h-520q-11 0 -12 24.5t8 49t22 24.5q46 0 78.5 30t38.5 79zM758 535q-93 0 -122 77
q-26 68 11 145q37 80 112 100q21 5 42 5q92 0 123 -76q28 -67 -7 -144q-36 -79 -113 -101q-22 -6 -46 -6z" />
    <glyph glyph-name="Lslash" unicode="&#x141;" horiz-adv-x="1335" 
d="M1049 979l-398 -164l-86 -608q-6 -47 18 -77t70 -30h181q25 0 54.5 10t60 28t61 39.5t62 49.5t57.5 51.5t53 51t42.5 44t32.5 35t17 19.5q14 14 39 14q31 0 47.5 -21.5t-0.5 -58.5l-178 -339l-31 -23h-1028q-11 0 -12 24.5t8 49t22 24.5q46 0 78.5 30t38.5 79l68 475
l-154 -64q-33 -14 -50 17.5t4 59.5q9 12 24 18l190 78l90 639q7 49 -16.5 78.5t-69.5 29.5q-13 0 -15.5 24.5t5 49t18.5 24.5h520q11 0 12.5 -24.5t-7 -49t-21.5 -24.5q-46 0 -79 -29.5t-40 -78.5l-69 -504l358 147q32 13 49.5 -16.5t-1.5 -57.5q-9 -13 -25 -20z" />
    <glyph glyph-name="lslash" unicode="&#x142;" horiz-adv-x="960" 
d="M1049 979l-381 -156l-86 -616q-6 -49 18 -79t70 -30q13 0 14.5 -24.5t-6.5 -49t-19 -24.5h-520q-11 0 -11.5 24.5t8.5 49t22 24.5q46 0 78 30t38 79l68 481l-170 -70q-33 -14 -50 17.5t4 59.5q9 12 24 18l208 86l88 631q7 49 -16.5 78.5t-69.5 29.5q-13 0 -15 24.5
t5.5 49t18.5 24.5h413l-98 -704l342 141q32 13 49.5 -16.5t-1.5 -57.5q-9 -13 -25 -20z" />
    <glyph glyph-name="Nacute" unicode="&#x143;" horiz-adv-x="1556" 
d="M1188 1878l-268 -141q-22 -10 -35.5 -1.5t-13.5 28.5t16 32l235 184q17 16 44 -6t34 -51t-12 -45zM1585 1432l-192 -1381q-2 -2 -2 -6q-3 -20 -11.5 -32.5t-19.5 -12.5h-252l-614 1286l-172 -1079q-6 -46 21 -77.5t73 -31.5q13 0 15 -24.5t-6 -49t-19 -24.5h-357
q-11 0 -11.5 24.5t8.5 49t22 24.5q47 0 86 32.5t45 76.5l198 1225q7 47 -18 76.5t-72 29.5q-13 0 -15.5 24.5t5 49t18.5 24.5h381l617 -1276l151 1072q6 46 -19.5 76t-72.5 30q-13 0 -15.5 24.5t5 49t18.5 24.5h357q11 0 12 -24.5t-7.5 -49t-21.5 -24.5q-50 0 -89.5 -31
t-45.5 -75zM348 1538l8 -2q-2 2 -8 2z" />
    <glyph glyph-name="nacute" unicode="&#x144;" horiz-adv-x="1343" 
d="M1024 1468l-268 -141q-33 -18 -46.5 11t13.5 48l235 185q17 16 43.5 -6.5t34 -51.5t-11.5 -45zM174 207l80 571q7 49 -16.5 79t-69.5 30q-13 0 -16 23t4.5 47t21.5 28q115 31 198.5 64t201.5 94h34l-16 -127q60 78 147.5 123t180.5 45q189 0 268 -98.5t51 -299.5
l-61 -436q0 -3 -2.5 -17.5t-4.5 -27t-3.5 -30.5t-1 -31.5t3.5 -26.5t10 -20t18 -7q26 0 45.5 18.5t36 37t33.5 18.5q18 0 29.5 -11t9.5 -26q-15 -102 -95 -171.5t-182 -69.5q-114 0 -174 81.5t-41 211.5l74 518q13 102 -29.5 165.5t-122.5 61.5q-74 0 -134.5 -54t-82.5 -139
l-88 -624q-6 -49 18 -79t70 -30q13 0 15 -24.5t-6 -49t-19 -24.5h-520q-11 0 -12 24.5t8 49t22 24.5q46 0 78.5 30t38.5 79z" />
    <glyph glyph-name="uni0145" unicode="&#x145;" horiz-adv-x="1556" 
d="M1585 1432l-192 -1381q-2 -2 -2 -6q-3 -20 -11.5 -32.5t-19.5 -12.5h-252l-614 1286l-172 -1079q-6 -46 21 -77.5t73 -31.5q13 0 15 -24.5t-6 -49t-19 -24.5h-357q-11 0 -11.5 24.5t8.5 49t22 24.5q47 0 86 32.5t45 76.5l198 1225q7 47 -18 76.5t-72 29.5
q-13 0 -15.5 24.5t5 49t18.5 24.5h381l617 -1276l151 1072q6 46 -19.5 76t-72.5 30q-13 0 -15.5 24.5t5 49t18.5 24.5h357q11 0 12 -24.5t-7.5 -49t-21.5 -24.5q-50 0 -89.5 -31t-45.5 -75zM348 1538l8 -2q-2 2 -8 2zM618 -489q27 25 72 87q57 80 25 80q-35 0 -59.5 30.5
t-18.5 68.5q7 54 42.5 88.5t82.5 34.5q49 0 76.5 -32.5t19.5 -82.5q-9 -66 -75.5 -170.5t-123.5 -142.5q-23 -14 -38.5 1t-2.5 38z" />
    <glyph glyph-name="uni0146" unicode="&#x146;" horiz-adv-x="1343" 
d="M174 207l80 571q7 49 -16.5 79t-69.5 30q-13 0 -16 23t4.5 47t21.5 28q115 31 198.5 64t201.5 94h34l-16 -127q60 78 147.5 123t180.5 45q189 0 268 -98.5t51 -299.5l-61 -436q0 -3 -2.5 -17.5t-4.5 -27t-3.5 -30.5t-1 -31.5t3.5 -26.5t10 -20t18 -7q26 0 45.5 18.5
t36 37t33.5 18.5q18 0 29.5 -11t9.5 -26q-15 -102 -95 -171.5t-182 -69.5q-114 0 -174 81.5t-41 211.5l74 518q13 102 -29.5 165.5t-122.5 61.5q-74 0 -134.5 -54t-82.5 -139l-88 -624q-6 -49 18 -79t70 -30q13 0 15 -24.5t-6 -49t-19 -24.5h-520q-11 0 -12 24.5t8 49
t22 24.5q46 0 78.5 30t38.5 79zM512 -489q27 25 71 87q57 80 25 80q-35 0 -59.5 30.5t-18.5 68.5q7 54 42.5 88.5t82.5 34.5q49 0 77 -32.5t20 -82.5q-9 -66 -75.5 -170.5t-123.5 -142.5q-23 -14 -38.5 1t-2.5 38z" />
    <glyph glyph-name="Ncaron" unicode="&#x147;" horiz-adv-x="1556" 
d="M944 1735l-151 200q-14 20 -7.5 36t25.5 16q13 0 27 -11l196 -159l242 159q32 22 46.5 4.5t-13.5 -45.5l-209 -200h-156zM1585 1432l-192 -1381q-2 -2 -2 -6q-3 -20 -11.5 -32.5t-19.5 -12.5h-252l-614 1286l-172 -1079q-6 -46 21 -77.5t73 -31.5q13 0 15 -24.5t-6 -49
t-19 -24.5h-357q-11 0 -11.5 24.5t8.5 49t22 24.5q47 0 86 32.5t45 76.5l198 1225q7 47 -18 76.5t-72 29.5q-13 0 -15.5 24.5t5 49t18.5 24.5h381l617 -1276l151 1072q6 46 -19.5 76t-72.5 30q-13 0 -15.5 24.5t5 49t18.5 24.5h357q11 0 12 -24.5t-7.5 -49t-21.5 -24.5
q-50 0 -89.5 -31t-45.5 -75zM348 1538l8 -2q-2 2 -8 2z" />
    <glyph glyph-name="ncaron" unicode="&#x148;" horiz-adv-x="1343" 
d="M780 1325l-151 201q-14 20 -8 35.5t24 15.5q17 0 29 -10l196 -160l242 160q31 22 46 4.5t-13 -45.5l-209 -201h-156zM174 207l80 571q7 49 -16.5 79t-69.5 30q-13 0 -16 23t4.5 47t21.5 28q115 31 198.5 64t201.5 94h34l-16 -127q60 78 147.5 123t180.5 45
q189 0 268 -98.5t51 -299.5l-61 -436q0 -3 -2.5 -17.5t-4.5 -27t-3.5 -30.5t-1 -31.5t3.5 -26.5t10 -20t18 -7q26 0 45.5 18.5t36 37t33.5 18.5q18 0 29.5 -11t9.5 -26q-15 -102 -95 -171.5t-182 -69.5q-114 0 -174 81.5t-41 211.5l74 518q13 102 -29.5 165.5t-122.5 61.5
q-74 0 -134.5 -54t-82.5 -139l-88 -624q-6 -49 18 -79t70 -30q13 0 15 -24.5t-6 -49t-19 -24.5h-520q-11 0 -12 24.5t8 49t22 24.5q46 0 78.5 30t38.5 79z" />
    <glyph glyph-name="napostrophe" unicode="&#x149;" horiz-adv-x="1343" 
d="M213 1221q31 31 78 99.5t16 68.5q-35 0 -59 30t-19 68q7 54 42.5 88.5t82.5 34.5q49 0 77 -32.5t22 -82.5q-9 -66 -76 -170.5t-125 -142.5q-22 -14 -37 1t-2 38zM174 207l80 571q7 49 -16.5 79t-69.5 30q-13 0 -16 23t4.5 47t21.5 28q115 31 198.5 64t201.5 94h34
l-16 -127q60 78 147.5 123t180.5 45q189 0 268 -98.5t51 -299.5l-61 -436q0 -3 -2.5 -17.5t-4.5 -27t-3.5 -30.5t-1 -31.5t3.5 -26.5t10 -20t18 -7q26 0 45.5 18.5t36 37t33.5 18.5q18 0 29.5 -11t9.5 -26q-15 -102 -95 -171.5t-182 -69.5q-114 0 -174 81.5t-41 211.5
l74 518q13 102 -29.5 165.5t-122.5 61.5q-74 0 -134.5 -54t-82.5 -139l-88 -624q-6 -49 18 -79t70 -30q13 0 15 -24.5t-6 -49t-19 -24.5h-520q-11 0 -12 24.5t8 49t22 24.5q46 0 78.5 30t38.5 79z" />
    <glyph glyph-name="Omacron" unicode="&#x14c;" horiz-adv-x="1427" 
d="M1221 1868h-488q-34 0 -37 36q-4 36 22 61q14 13 32 13h487q27 0 35.5 -27.5t-6.5 -55t-45 -27.5zM713 -20q-290 0 -447 213q-135 182 -139 466q-3 278 120 531q126 262 340 390q166 99 361 99q291 0 448 -213q135 -182 138 -466q3 -278 -120 -531q-127 -261 -340 -390
q-166 -99 -361 -99zM932 1577q-166 0 -297 -212q-124 -199 -173 -499q-48 -299 7 -518q54 -219 195 -258q28 -8 59 -8q167 0 300 212q125 198 174 496t-5 517.5t-196 260.5q-30 9 -64 9z" />
    <glyph glyph-name="omacron" unicode="&#x14d;" horiz-adv-x="1142" 
d="M1014 1401h-488q-34 0 -37 36q-4 36 22 61q14 13 32 13h487q27 0 35.5 -27.5t-6.5 -55t-45 -27.5zM565 -20q-261 0 -389 176q-106 146 -90 364q16 212 138 388q135 193 340 253q81 23 167 23q260 0 392 -175q109 -145 97 -361q-12 -211 -133 -388q-134 -194 -345 -255
q-85 -25 -177 -25zM584 82q127 0 220 169q88 159 108 382q19 221 -43 347q-50 101 -140 101q-126 0 -221 -168q-89 -158 -111 -378q-23 -222 40 -349q51 -104 147 -104z" />
    <glyph glyph-name="Obreve" unicode="&#x14e;" horiz-adv-x="1427" 
d="M1255 1903q-68 -79 -144.5 -120.5t-149.5 -41.5q-74 0 -138.5 41.5t-111.5 120.5q-24 38 -11.5 64t39.5 26q19 0 29 -17q30 -52 86 -79t125 -27q68 0 133 27t107 79q14 17 30 17q15 0 25.5 -11.5t7 -33t-26.5 -45.5zM713 -20q-290 0 -447 213q-135 182 -139 466
q-3 278 120 531q126 262 340 390q166 99 361 99q291 0 448 -213q135 -182 138 -466q3 -278 -120 -531q-127 -261 -340 -390q-166 -99 -361 -99zM932 1577q-166 0 -297 -212q-124 -199 -173 -499q-48 -299 7 -518q54 -219 195 -258q28 -8 59 -8q167 0 300 212
q125 198 174 496t-5 517.5t-196 260.5q-30 9 -64 9z" />
    <glyph glyph-name="obreve" unicode="&#x14f;" horiz-adv-x="1142" 
d="M1055 1493q-141 -162 -293 -162q-74 0 -139.5 41.5t-112.5 120.5q-22 38 -9 64t40 26q18 0 28 -16q30 -52 86.5 -79.5t124.5 -27.5t132.5 27.5t107.5 79.5q20 25 45 12q26 -12 16 -46q-6 -19 -26 -40zM565 -20q-261 0 -389 176q-106 146 -90 364q16 212 138 388
q135 193 340 253q81 23 167 23q260 0 392 -175q109 -145 97 -361q-12 -211 -133 -388q-134 -194 -345 -255q-85 -25 -177 -25zM584 82q127 0 220 169q88 159 108 382q19 221 -43 347q-50 101 -140 101q-126 0 -221 -168q-89 -158 -111 -378q-23 -222 40 -349
q51 -104 147 -104z" />
    <glyph glyph-name="Ohungarumlaut" unicode="&#x150;" horiz-adv-x="1427" 
d="M977 1878l-268 -141q-22 -10 -35.5 -1.5t-13.5 28.5t16 32l235 184q17 16 44 -6t34 -51t-12 -45zM1270 1878l-269 -141q-22 -10 -35.5 -1.5t-13 28.5t16.5 32l235 184q17 16 44 -6t34 -51t-12 -45zM713 -20q-290 0 -447 213q-135 182 -139 466q-3 278 120 531
q126 262 340 390q166 99 361 99q291 0 448 -213q135 -182 138 -466q3 -278 -120 -531q-127 -261 -340 -390q-166 -99 -361 -99zM932 1577q-166 0 -297 -212q-124 -199 -173 -499q-48 -299 7 -518q54 -219 195 -258q28 -8 59 -8q167 0 300 212q125 198 174 496t-5 517.5
t-196 260.5q-30 9 -64 9z" />
    <glyph glyph-name="ohungarumlaut" unicode="&#x151;" horiz-adv-x="1142" 
d="M778 1468l-268 -141q-33 -18 -46.5 11t13.5 48l236 185q17 16 43 -6.5t33.5 -51.5t-11.5 -45zM1071 1468l-268 -141q-33 -18 -46.5 11t13.5 48l236 185q17 16 43 -6.5t33.5 -51.5t-11.5 -45zM565 -20q-261 0 -389 176q-106 146 -90 364q16 212 138 388q135 193 340 253
q81 23 167 23q260 0 392 -175q109 -145 97 -361q-12 -211 -133 -388q-134 -194 -345 -255q-85 -25 -177 -25zM584 82q127 0 220 169q88 159 108 382q19 221 -43 347q-50 101 -140 101q-126 0 -221 -168q-89 -158 -111 -378q-23 -222 40 -349q51 -104 147 -104z" />
    <glyph glyph-name="OE" unicode="&#x152;" horiz-adv-x="2486" 
d="M713 -20q-290 0 -447 213q-135 182 -139 466q-3 278 120 531q126 262 340 390q166 99 361 99q217 0 363.5 -122.5t197.5 -346.5l31 220q7 49 -16.5 78.5t-69.5 29.5q-13 0 -15.5 24.5t5 49t18.5 24.5h1028l25 -22l82 -340q8 -34 -15 -57t-53 -23q-27 0 -35 14
q-72 111 -117 166q-133 162 -233 162h-180q-46 0 -78.5 -29.5t-38.5 -76.5l-80 -576l344 66l25 -23l33 -137q-3 -27 -27 -27l-389 21l-78 -547q-6 -47 18 -77t70 -30h222q25 0 54.5 10t60 28t61 39.5t62 49.5t57.5 51.5t53 51t42.5 44t32.5 35t17 19.5q14 14 39 14
q31 0 47.5 -21.5t-0.5 -58.5l-178 -339l-31 -23h-1069q-11 0 -12 24.5t8 49t22 24.5q46 0 78.5 29t38.5 76l35 243q-116 -223 -295.5 -344.5t-394.5 -121.5zM932 1577q-166 0 -297 -212q-124 -199 -173 -499q-48 -299 7 -518q54 -219 195 -258q28 -8 59 -8q167 0 300 212
q125 198 174 496t-5 517.5t-196 260.5q-30 9 -64 9z" />
    <glyph glyph-name="oe" unicode="&#x153;" horiz-adv-x="2117" 
d="M565 -20q-261 0 -389 176q-106 146 -90 364q16 212 138 388q135 193 340 253q81 23 167 23q175 0 296.5 -83.5t168.5 -236.5q94 155 244.5 239.5t333.5 84.5q131 0 233 -64t151 -174.5t31 -240.5q-15 -107 -131 -107h-626q-9 -179 84.5 -279t271.5 -100q88 0 165 31.5
t118 83.5q27 31 45 31t29 -11t9 -26q-51 -151 -213 -251.5t-354 -100.5q-175 0 -298.5 85.5t-172.5 241.5q-91 -156 -235 -241.5t-316 -85.5zM584 82q127 0 220 169q88 159 108 382q19 221 -43 347q-50 101 -140 101q-126 0 -221 -168q-89 -158 -111 -378q-23 -222 40 -349
q51 -104 147 -104zM1444 705h426q28 190 -4.5 282.5t-124.5 89.5q-88 -3 -174 -111t-123 -261z" />
    <glyph glyph-name="Racute" unicode="&#x154;" horiz-adv-x="1515" 
d="M1167 1878l-268 -141q-22 -10 -35.5 -1.5t-13.5 28.5t16 32l236 184q17 16 43.5 -6t34 -51t-12.5 -45zM270 1538q-13 0 -15 24.5t5.5 49t18.5 24.5h661q145 0 263 -31.5t193.5 -84t122.5 -123t58 -147.5t-9.5 -158t-70 -153.5t-133 -135.5t-190.5 -103q0 -2 10 -45
t17 -70.5t21.5 -82t28.5 -93t33.5 -90t40.5 -86.5t45.5 -67.5t52.5 -49t58 -16.5q11 0 11.5 -25t-8.5 -50t-22 -25q-258 0 -401 182q-82 104 -159 324q-6 17 -46 135q-18 -2 -55 -2h-248l-61 -436q-6 -47 18 -76t70 -29q13 0 14.5 -24.5t-6.5 -49t-19 -24.5h-520
q-11 0 -11.5 24.5t8.5 49t22 24.5q46 0 78 29t38 76l172 1227q7 49 -16.5 78.5t-69.5 29.5zM664 1430l-82 -584q-6 -47 18 -77t70 -30h82q201 0 345 137q116 110 145 260q30 155 -50 265q-100 135 -330 135h-82q-46 0 -78 -29.5t-38 -76.5z" />
    <glyph glyph-name="racute" unicode="&#x155;" horiz-adv-x="1026" 
d="M864 1468l-268 -141q-33 -18 -46.5 11t13.5 48l236 185q17 16 43 -6.5t33.5 -51.5t-11.5 -45zM174 207l80 571q7 49 -16.5 79t-69.5 30q-13 0 -16 23t4.5 47t21.5 28q115 31 198.5 64t201.5 94h34l-26 -193q51 89 149 150t191 63q113 1 170 -57t43 -160v-6
q-10 -72 -67 -110.5t-126 -38.5q-52 0 -89 20t-46 57q5 42 -18 69.5t-62 27.5q-55 -1 -103 -61t-71 -156l-76 -541q-6 -49 18 -79t70 -30q13 0 15 -24.5t-6 -49t-19 -24.5h-520q-11 0 -12 24.5t8 49t22 24.5q46 0 78.5 30t38.5 79z" />
    <glyph glyph-name="uni0156" unicode="&#x156;" horiz-adv-x="1515" 
d="M270 1538q-13 0 -15 24.5t5.5 49t18.5 24.5h661q145 0 263 -31.5t193.5 -84t122.5 -123t58 -147.5t-9.5 -158t-70 -153.5t-133 -135.5t-190.5 -103q0 -2 10 -45t17 -70.5t21.5 -82t28.5 -93t33.5 -90t40.5 -86.5t45.5 -67.5t52.5 -49t58 -16.5q11 0 11.5 -25t-8.5 -50
t-22 -25q-258 0 -401 182q-82 104 -159 324q-6 17 -46 135q-14 -2 -55 -2h-248l-61 -436q-6 -47 18 -76t70 -29q13 0 14.5 -24.5t-6.5 -49t-19 -24.5h-520q-11 0 -11.5 24.5t8.5 49t22 24.5q46 0 78 29t38 76l172 1227q7 49 -16.5 78.5t-69.5 29.5zM664 1430l-82 -584
q-6 -47 18 -77t70 -30h82q201 0 345 137q116 110 145 260q30 155 -50 265q-100 135 -330 135h-82q-46 0 -78 -29.5t-38 -76.5zM598 -489q27 25 71 87q57 80 25 80q-35 0 -59.5 30.5t-18.5 68.5q7 54 42.5 88.5t82.5 34.5q49 0 77 -32.5t20 -82.5q-9 -66 -75.5 -170.5
t-123.5 -142.5q-23 -14 -38.5 1t-2.5 38z" />
    <glyph glyph-name="uni0157" unicode="&#x157;" horiz-adv-x="1026" 
d="M174 207l80 571q7 49 -16.5 79t-69.5 30q-13 0 -16 23t4.5 47t21.5 28q115 31 198.5 64t201.5 94h34l-26 -193q51 89 149 150t191 63q113 1 170 -57t43 -160v-6q-10 -72 -67 -110.5t-126 -38.5q-52 0 -89 20t-46 57q5 42 -18 69.5t-62 27.5q-55 -1 -103 -61t-71 -156
l-76 -541q-6 -49 18 -79t70 -30q13 0 15 -24.5t-6 -49t-19 -24.5h-520q-11 0 -12 24.5t8 49t22 24.5q46 0 78.5 30t38.5 79zM354 -489q27 25 72 87q57 80 25 80q-35 0 -59.5 30.5t-18.5 68.5q7 54 42.5 88.5t82.5 34.5q49 0 76.5 -32.5t19.5 -82.5q-9 -66 -75.5 -170.5
t-123.5 -142.5q-23 -14 -38.5 1t-2.5 38z" />
    <glyph glyph-name="Rcaron" unicode="&#x158;" horiz-adv-x="1515" 
d="M772 1935q-14 20 -7.5 36t26.5 16q12 0 26 -11l197 -159l241 159q32 22 46.5 4.5t-13.5 -45.5l-209 -200h-155zM270 1538q-13 0 -15 24.5t5.5 49t18.5 24.5h661q145 0 263 -31.5t193.5 -84t122.5 -123t58 -147.5t-9.5 -158t-70 -153.5t-133 -135.5t-190.5 -103
q0 -2 10 -45t17 -70.5t21.5 -82t28.5 -93t33.5 -90t40.5 -86.5t45.5 -67.5t52.5 -49t58 -16.5q11 0 11.5 -25t-8.5 -50t-22 -25q-258 0 -401 182q-82 104 -159 324q-6 17 -46 135q-18 -2 -55 -2h-248l-61 -436q-6 -47 18 -76t70 -29q13 0 14.5 -24.5t-6.5 -49t-19 -24.5
h-520q-11 0 -11.5 24.5t8.5 49t22 24.5q46 0 78 29t38 76l172 1227q7 49 -16.5 78.5t-69.5 29.5zM664 1430l-82 -584q-6 -47 18 -77t70 -30h82q201 0 345 137q116 110 145 260q30 155 -50 265q-100 135 -330 135h-82q-46 0 -78 -29.5t-38 -76.5z" />
    <glyph glyph-name="rcaron" unicode="&#x159;" horiz-adv-x="1026" 
d="M471 1526q-14 20 -8 35.5t24 15.5q17 0 29 -10l197 -160l241 160q31 22 46 4.5t-13 -45.5l-209 -201h-155zM174 207l80 571q7 49 -16.5 79t-69.5 30q-13 0 -16 23t4.5 47t21.5 28q115 31 198.5 64t201.5 94h34l-26 -193q51 89 149 150t191 63q113 1 170 -57t43 -160v-6
q-10 -72 -67 -110.5t-126 -38.5q-52 0 -89 20t-46 57q5 42 -18 69.5t-62 27.5q-55 -1 -103 -61t-71 -156l-76 -541q-6 -49 18 -79t70 -30q13 0 15 -24.5t-6 -49t-19 -24.5h-520q-11 0 -12 24.5t8 49t22 24.5q46 0 78.5 30t38.5 79z" />
    <glyph glyph-name="Sacute" unicode="&#x15a;" horiz-adv-x="1282" 
d="M1051 1878l-269 -141q-22 -10 -35.5 -1.5t-13 28.5t16.5 32l235 184q17 16 44 -6t34 -51t-12 -45zM1317 399q-26 -186 -205 -302.5t-438 -116.5q-292 2 -453 153.5t-127 392.5q7 50 63.5 77.5t129.5 27.5t123 -29.5t43 -81.5v-2q-18 -110 -5.5 -188.5t51.5 -128.5
t90 -73.5t111 -23.5q105 0 192 66t101 172q8 54 -14.5 104t-66.5 92t-103 84t-125 84t-131.5 86t-123.5 96.5t-100 109.5t-61.5 130t-7.5 154q25 173 190 285t398 112q172 1 303 -57.5t195.5 -163t46.5 -233.5q-7 -50 -67 -77.5t-136 -27.5q-77 0 -130 29.5t-46 81.5l2 2
q27 110 4 181.5t-71 105.5t-113 34q-89 0 -164.5 -62t-89.5 -165q-7 -50 16 -98t67 -89t103.5 -82.5t125.5 -83.5t131.5 -86.5t123 -97t99.5 -109.5t61.5 -129.5t7.5 -152.5z" />
    <glyph glyph-name="sacute" unicode="&#x15b;" horiz-adv-x="933" 
d="M819 1468l-268 -141q-33 -18 -46.5 11t13.5 48l236 185q17 16 43 -6.5t33.5 -51.5t-11.5 -45zM664 238q6 41 -20.5 81.5t-72.5 76.5t-103 73t-113 78t-101.5 84t-69.5 98.5t-16 114.5q22 157 149.5 248.5t327.5 91.5q168 0 285 -89t100 -204q-7 -50 -57 -77.5t-115 -27.5
t-108 29.5t-35 81.5q24 91 -10.5 137.5t-98.5 46.5q-58 0 -107.5 -33t-56.5 -85q-7 -38 20.5 -76.5t76.5 -73.5t110 -72.5t121.5 -81t109 -91t74 -111t15.5 -133.5q-20 -149 -166.5 -246.5t-347.5 -97.5q-183 0 -300.5 104.5t-97.5 249.5q7 50 57 77t115 27t108.5 -29
t35.5 -81q-33 -118 7 -182t114 -64q60 0 110 42t60 114z" />
    <glyph glyph-name="Scircumflex" unicode="&#x15c;" horiz-adv-x="1282" 
d="M633 1776l209 200h155l152 -200q14 -20 6.5 -36t-25.5 -16q-12 0 -26 11l-197 159l-241 -159q-32 -22 -47 -4.5t14 45.5zM1317 399q-26 -186 -205 -302.5t-438 -116.5q-292 2 -453 153.5t-127 392.5q7 50 63.5 77.5t129.5 27.5t123 -29.5t43 -81.5v-2
q-18 -110 -5.5 -188.5t51.5 -128.5t90 -73.5t111 -23.5q105 0 192 66t101 172q8 54 -14.5 104t-66.5 92t-103 84t-125 84t-131.5 86t-123.5 96.5t-100 109.5t-61.5 130t-7.5 154q25 173 190 285t398 112q172 1 303 -57.5t195.5 -163t46.5 -233.5q-7 -50 -67 -77.5
t-136 -27.5q-77 0 -130 29.5t-46 81.5l2 2q27 110 4 181.5t-71 105.5t-113 34q-89 0 -164.5 -62t-89.5 -165q-7 -50 16 -98t67 -89t103.5 -82.5t125.5 -83.5t131.5 -86.5t123 -97t99.5 -109.5t61.5 -129.5t7.5 -152.5z" />
    <glyph glyph-name="scircumflex" unicode="&#x15d;" horiz-adv-x="933" 
d="M401 1366l209 201h156l152 -201q14 -20 6.5 -35.5t-25.5 -15.5q-15 0 -27 10l-196 160l-242 -160q-32 -22 -47 -4.5t14 45.5zM664 238q6 41 -20.5 81.5t-72.5 76.5t-103 73t-113 78t-101.5 84t-69.5 98.5t-16 114.5q22 157 149 248t328 92q168 0 285 -89t100 -204
q-7 -50 -57 -77.5t-115 -27.5t-108 29.5t-35 81.5q24 91 -10.5 137.5t-98.5 46.5q-58 0 -107.5 -33t-56.5 -85q-7 -38 20.5 -76.5t76.5 -73.5t110 -72.5t121.5 -81t109 -91t74 -111t15.5 -133.5q-20 -149 -166.5 -246.5t-347.5 -97.5q-183 0 -300.5 104.5t-97.5 249.5
q7 50 57 77t115 27t108.5 -29t35.5 -81q-33 -118 7 -182t114 -64q60 0 110 42t60 114z" />
    <glyph glyph-name="Scedilla" unicode="&#x15e;" horiz-adv-x="1282" 
d="M1317 399q-26 -186 -205.5 -303t-437.5 -116q-60 0 -135 10l-33 -64q209 0 303 -104q68 -74 47 -167q-21 -90 -114 -140q-73 -39 -171 -39q-123 0 -188 49.5t-53 134.5q3 22 26.5 34.5t53.5 12.5t51 -13t18 -36q-10 -66 16 -101.5t83 -35.5q74 0 118.5 70.5t25.5 150.5
q-23 94 -123 130q-50 17 -114 17q-49 0 -34 41l36 70q-214 50 -317.5 188.5t-75.5 337.5q7 50 63.5 77.5t129.5 27.5t123 -29.5t43 -81.5v-2q-18 -110 -5.5 -188.5t51.5 -128.5t90 -73.5t111 -23.5q105 0 192 66t101 172q8 54 -14.5 104t-66.5 92t-103 84t-125 84t-131.5 86
t-123.5 96.5t-100 109.5t-61.5 130t-7.5 154q25 173 190 285t398 112q172 1 303 -57.5t195.5 -163t46.5 -233.5q-7 -50 -67 -77.5t-136 -27.5q-77 0 -130 29.5t-46 81.5l2 2q27 110 4 181.5t-71 105.5t-113 34q-89 0 -164.5 -62t-89.5 -165q-7 -50 16 -98t67 -89
t103.5 -82.5t125.5 -83.5t131.5 -86.5t123 -97t99.5 -109.5t61.5 -129.5t7.5 -152.5z" />
    <glyph glyph-name="scedilla" unicode="&#x15f;" horiz-adv-x="933" 
d="M664 238q6 41 -20.5 81.5t-72.5 76.5t-103 73t-113 78t-101.5 84t-69.5 98.5t-16 114.5q22 157 149.5 248.5t327.5 91.5q168 0 285 -89t100 -204q-7 -50 -57 -77.5t-115 -27.5t-108 29.5t-35 81.5q24 91 -10.5 137.5t-98.5 46.5q-58 0 -107.5 -33t-56.5 -85
q-7 -38 20.5 -76.5t76.5 -73.5t110 -72.5t121.5 -81t109 -91t74 -111t15.5 -133.5q-20 -149 -166.5 -246.5t-347.5 -97.5q-52 0 -93 8l-30 -62q209 0 303 -104q68 -74 47 -167q-21 -90 -114 -140q-73 -39 -171 -39q-123 0 -188 49.5t-53 134.5q3 22 26.5 34.5t53.5 12.5
t51 -13t18 -36q-10 -66 15.5 -101.5t82.5 -35.5q74 0 118.5 70.5t25.5 150.5q-22 94 -122 129q-49 18 -114 18q-50 0 -35 41l37 70q-130 37 -200.5 129t-55.5 205q7 50 57 77t115 27t108.5 -29t35.5 -81q-33 -118 7 -182t114 -64q60 0 110 42t60 114z" />
    <glyph glyph-name="Scaron" unicode="&#x160;" horiz-adv-x="1282" 
d="M807 1735l-152 200q-14 20 -7.5 36t26.5 16q12 0 26 -11l197 -159l242 159q32 22 46 4.5t-14 -45.5l-208 -200h-156zM1317 399q-26 -186 -205 -302.5t-438 -116.5q-292 2 -453 153.5t-127 392.5q7 50 63.5 77.5t129.5 27.5t123 -29.5t43 -81.5v-2q-18 -110 -5.5 -188.5
t51.5 -128.5t90 -73.5t111 -23.5q105 0 192 66t101 172q8 54 -14.5 104t-66.5 92t-103 84t-125 84t-131.5 86t-123.5 96.5t-100 109.5t-61.5 130t-7.5 154q25 173 190 285t398 112q172 1 303 -57.5t195.5 -163t46.5 -233.5q-7 -50 -67 -77.5t-136 -27.5q-77 0 -130 29.5
t-46 81.5l2 2q27 110 4 181.5t-71 105.5t-113 34q-89 0 -164.5 -62t-89.5 -165q-7 -50 16 -98t67 -89t103.5 -82.5t125.5 -83.5t131.5 -86.5t123 -97t99.5 -109.5t61.5 -129.5t7.5 -152.5z" />
    <glyph glyph-name="scaron" unicode="&#x161;" horiz-adv-x="933" 
d="M575 1325l-151 201q-14 20 -8 35.5t24 15.5q17 0 29 -10l197 -160l241 160q31 22 46 4.5t-13 -45.5l-209 -201h-156zM664 238q6 41 -20.5 81.5t-72.5 76.5t-103 73t-113 78t-101.5 84t-69.5 98.5t-16 114.5q22 157 149.5 248.5t327.5 91.5q168 0 285 -89t100 -204
q-7 -50 -57 -77.5t-115 -27.5t-108 29.5t-35 81.5q24 91 -10.5 137.5t-98.5 46.5q-58 0 -107.5 -33t-56.5 -85q-7 -38 20.5 -76.5t76.5 -73.5t110 -72.5t121.5 -81t109 -91t74 -111t15.5 -133.5q-20 -149 -166.5 -246.5t-347.5 -97.5q-183 0 -300.5 104.5t-97.5 249.5
q7 50 57 77t115 27t108.5 -29t35.5 -81q-33 -118 7 -182t114 -64q60 0 110 42t60 114z" />
    <glyph glyph-name="uni0162" unicode="&#x162;" horiz-adv-x="1548" 
d="M395 1614l29 22h1159l25 -22l82 -340q8 -34 -15 -57t-53 -23q-27 0 -35 14q-72 111 -117 166q-133 162 -233 162h-94l-187 -1329q-6 -49 18 -79t70 -30q13 0 15 -24.5t-6 -49t-19 -24.5h-520q-11 0 -12 24.5t8 49t22 24.5q46 0 78.5 30t38.5 79l187 1329h-95
q-25 0 -54.5 -10t-60 -28t-61 -39.5t-62 -49.5t-57.5 -51.5t-53 -51t-42.5 -44t-32.5 -35t-17 -19.5q-14 -14 -39 -14q-31 0 -48 23t1 57zM614 -489q27 25 72 87q57 80 25 80q-35 0 -59.5 30.5t-18.5 68.5q7 54 42.5 88.5t82.5 34.5q49 0 76.5 -32.5t19.5 -82.5
q-9 -66 -75.5 -170.5t-123.5 -142.5q-23 -14 -38.5 1t-2.5 38z" />
    <glyph glyph-name="uni0163" unicode="&#x163;" horiz-adv-x="722" 
d="M745 227q-40 -118 -132 -180.5t-226 -60.5q-115 1 -174.5 82.5t-40.5 210.5l98 696h-102q-13 0 -15 20.5t7 41t24 20.5q75 0 194 129.5t243 347.5h34l-65 -477h172q18 0 23 -20.5t-6 -41t-29 -20.5h-172l-89 -625q-12 -83 6.5 -122.5t69.5 -39.5q28 0 50.5 12t35 26
t27.5 26t29 12q18 0 29 -11t9 -26zM203 -489q27 25 71 87q57 80 25 80q-35 0 -59.5 30.5t-18.5 68.5q7 54 42.5 88.5t82.5 34.5q49 0 76.5 -32.5t19.5 -82.5q-9 -66 -75 -170.5t-123 -142.5q-23 -14 -38.5 1t-2.5 38z" />
    <glyph glyph-name="Tcaron" unicode="&#x164;" horiz-adv-x="1548" 
d="M788 1935q-14 20 -7.5 36t26.5 16q13 0 27 -11l196 -159l242 159q32 22 46.5 4.5t-13.5 -45.5l-209 -200h-156zM424 1636h1159l25 -22l82 -340q8 -34 -15 -57t-53 -23q-27 0 -35 14q-72 111 -117 166q-133 162 -233 162h-94l-187 -1329q-6 -49 18 -79t70 -30
q13 0 15 -24.5t-6 -49t-19 -24.5h-520q-11 0 -12 24.5t8 49t22 24.5q46 0 78.5 30t38.5 79l187 1329h-95q-25 0 -54.5 -10t-60 -28t-61 -39.5t-62 -49.5t-57.5 -51.5t-53 -51t-42.5 -44t-32.5 -35t-17 -19.5q-14 -14 -39 -14q-31 0 -48 23t1 57l180 340z" />
    <glyph glyph-name="tcaron" unicode="&#x165;" horiz-adv-x="903" 
d="M868 1253q32 32 80 100t17 68q-7 0 -19 3.5t-29 12t-26.5 30.5t-5.5 53q6 49 41 85.5t86 36.5q52 0 77 -34t19 -80q-10 -73 -80 -176.5t-121 -137.5q-22 -14 -37 1t-2 38zM745 227q-24 -69 -63.5 -118.5t-89 -75.5t-99.5 -37t-106 -10q-104 2 -169.5 75.5t-45.5 217.5
l98 696h-102q-13 0 -15 20.5t7 41t24 20.5q41 0 92.5 35.5t98 87t96.5 120t84.5 124t65.5 110.5h34l-65 -477h172q18 0 23 -20.5t-6 -41t-29 -20.5h-172l-89 -625q-5 -31 -5.5 -55t5 -50.5t24.5 -41.5t52 -15q28 0 50.5 12t35 26t27.5 26t29 12q16 0 27.5 -9.5t10.5 -27.5z
" />
    <glyph glyph-name="Tbar" unicode="&#x166;" horiz-adv-x="1548" 
d="M424 1636h1159l25 -22l82 -340q8 -34 -15 -57t-53 -23q-27 0 -35 14q-72 111 -117 166q-133 162 -233 162h-94q-3 -26 -70 -506h426q27 0 35.5 -27.5t-6.5 -55t-45 -27.5l-426 2q-70 -496 -101 -715q-6 -49 18 -79t70 -30q13 0 15 -24.5t-6 -49t-19 -24.5h-520
q-11 0 -12 24.5t8 49t22 24.5q46 0 78.5 30t38.5 79l101 713h-428q-34 0 -38 36t22 61q14 13 32 13h428l70 506h-95q-25 0 -54.5 -10t-60 -28t-61 -39.5t-62 -49.5t-57.5 -51.5t-53 -51t-42.5 -44t-32.5 -35t-17 -19.5q-14 -14 -39 -14q-31 0 -48 23t1 57l180 340z" />
    <glyph glyph-name="tbar" unicode="&#x167;" horiz-adv-x="722" 
d="M745 227q-40 -118 -132 -180.5t-226 -60.5q-115 1 -174.5 82.5t-40.5 210.5l53 376h-73q-34 0 -38 36t22 61q14 14 32 14h74l28 209h-102q-13 0 -15 20.5t7 41t24 20.5q75 0 194 129.5t243 347.5h34l-65 -477h172q18 0 23 -20.5t-6 -41t-29 -20.5h-172l-29 -209h166
q27 0 35 -28t-7 -55.5t-45 -27.5h-166l-43 -305q-12 -83 6.5 -122.5t69.5 -39.5q28 0 50.5 12t35 26t27.5 26t29 12q18 0 29 -11t9 -26z" />
    <glyph glyph-name="Utilde" unicode="&#x168;" horiz-adv-x="1560" 
d="M1331 1884q-92 -108 -186 -108q-51 0 -135 43t-121 43q-50 0 -92 -50q-13 -16 -31 -16q-15 0 -25.5 11.5t-7 33t26.5 45.5q72 92 158 92q47 0 134 -41t128 -41q60 0 114 62q21 25 47 12q26 -12 16 -46q-6 -19 -26 -40zM539 608q-35 -254 40 -390t252 -136
q206 0 347.5 141.5t173.5 380.5l114 828q6 46 -18.5 76t-71.5 30q-13 0 -15.5 24.5t5 49t18.5 24.5h357q11 0 12 -24.5t-7.5 -49t-21.5 -24.5q-50 0 -89.5 -31t-45.5 -75l-121 -865q-47 -277 -227 -433t-455 -157q-379 -3 -510 256q-72 139 -38 418l108 779q7 49 -16.5 78.5
t-69.5 29.5q-13 0 -15.5 24.5t5 49t18.5 24.5h520q11 0 12.5 -24.5t-7 -49t-21.5 -24.5q-46 0 -79 -29.5t-40 -78.5z" />
    <glyph glyph-name="utilde" unicode="&#x169;" horiz-adv-x="1347" 
d="M1167 1475q-93 -109 -186 -109q-51 0 -135 43t-121 43q-51 0 -92 -49q-21 -25 -46 -12q-26 12 -16 46q5 19 25 40q72 92 158 92q47 0 134 -41t128 -41q61 0 114 61q20 24 46 13t18 -43q-5 -20 -27 -43zM168 887q-13 0 -16 23t4.5 47t21.5 28q115 31 198.5 64t201.5 94h34
l-108 -776q-14 -102 28 -165t123 -63q83 1 147.5 67t78.5 161l57 411q7 49 -16.5 79t-69.5 30q-13 0 -16 23t4.5 47t21.5 28q115 31 198.5 64t201.5 94h34l-110 -793q0 -3 -2.5 -17.5t-4.5 -27t-3.5 -30.5t-1 -31.5t3.5 -26.5t10 -20t18 -7q26 0 45.5 18.5t36 37t33.5 18.5
q18 0 29.5 -11t9.5 -26q-15 -101 -95.5 -171t-181.5 -70q-88 0 -146.5 51t-70.5 139q-58 -92 -150.5 -144t-197.5 -52q-191 0 -269.5 98t-49.5 299l55 401q7 49 -16.5 79t-69.5 30z" />
    <glyph glyph-name="Umacron" unicode="&#x16a;" horiz-adv-x="1560" 
d="M799 1868q-34 0 -38 36t22 61q14 13 32 13h488q27 0 35 -27.5t-7 -55t-45 -27.5h-487zM539 608q-35 -254 40 -390t252 -136q206 0 347.5 141.5t173.5 380.5l114 828q7 47 -18 76.5t-72 29.5q-13 0 -15.5 24.5t5 49t18.5 24.5h357q11 0 12 -24.5t-7.5 -49t-21.5 -24.5
q-50 0 -89.5 -31t-45.5 -75l-121 -865q-47 -277 -227 -433t-455 -157q-379 -3 -510 256q-72 139 -38 418l108 779q7 49 -16.5 78.5t-69.5 29.5q-13 0 -15.5 24.5t5 49t18.5 24.5h520q11 0 12.5 -24.5t-7 -49t-21.5 -24.5q-46 0 -79 -29.5t-40 -78.5z" />
    <glyph glyph-name="umacron" unicode="&#x16b;" horiz-adv-x="1347" 
d="M635 1458q-34 0 -38 36t22 61q14 14 32 14h488q27 0 35 -27.5t-7 -55.5t-45 -28h-487zM168 887q-13 0 -16 23t4.5 47t21.5 28q115 31 198.5 64t201.5 94h34l-108 -776q-14 -102 28 -165t123 -63q83 1 147.5 67t78.5 161l57 411q7 49 -16.5 79t-69.5 30q-13 0 -16 23
t4.5 47t21.5 28q115 31 198.5 64t201.5 94h34l-110 -793q0 -3 -2.5 -17.5t-4.5 -27t-3.5 -30.5t-1 -31.5t3.5 -26.5t10 -20t18 -7q26 0 45.5 18.5t36 37t33.5 18.5q18 0 29.5 -11t9.5 -26q-15 -101 -95.5 -171t-181.5 -70q-88 0 -146.5 51t-70.5 139q-58 -92 -150.5 -144
t-197.5 -52q-191 0 -269.5 98t-49.5 299l55 401q7 49 -16.5 79t-69.5 30z" />
    <glyph glyph-name="Ubreve" unicode="&#x16c;" horiz-adv-x="1560" 
d="M1321 1903q-68 -79 -145 -120.5t-150 -41.5q-74 0 -138.5 41.5t-111.5 120.5q-24 38 -11 64t40 26q19 0 29 -17q30 -52 85.5 -79t124.5 -27q68 0 133 27t107 79q14 17 31 17q15 0 25.5 -11.5t7 -33t-26.5 -45.5zM539 608q-35 -254 40 -390t252 -136q206 0 347.5 141.5
t173.5 380.5l114 828q6 46 -18.5 76t-71.5 30q-13 0 -15.5 24.5t5 49t18.5 24.5h357q11 0 12 -24.5t-7.5 -49t-21.5 -24.5q-50 0 -89.5 -31t-45.5 -75l-121 -865q-47 -277 -227 -433t-455 -157q-379 -3 -510 256q-72 139 -38 418l108 779q7 49 -16.5 78.5t-69.5 29.5
q-13 0 -15.5 24.5t5 49t18.5 24.5h520q11 0 12.5 -24.5t-7 -49t-21.5 -24.5q-46 0 -79 -29.5t-40 -78.5z" />
    <glyph glyph-name="ubreve" unicode="&#x16d;" horiz-adv-x="1347" 
d="M1155 1493q-141 -162 -293 -162q-74 0 -139.5 41.5t-112.5 120.5q-22 38 -9 64t40 26q19 0 29 -16q30 -52 86 -79.5t123 -27.5q68 0 132.5 27.5t108.5 79.5q20 25 45 12q26 -12 16 -46q-6 -19 -26 -40zM168 887q-13 0 -16 23t4.5 47t21.5 28q124 37 206 68.5t194 89.5h34
l-108 -776q-14 -102 28 -165t123 -63q83 1 147.5 67t78.5 161l57 411q7 49 -16.5 79t-69.5 30q-13 0 -16 23t4.5 47t21.5 28q124 37 206 68.5t194 89.5h34l-110 -793q0 -3 -2.5 -17.5t-4.5 -27t-3.5 -30.5t-1 -31.5t3.5 -26.5t10 -20t18 -7q26 0 45.5 18.5t36 37t33.5 18.5
q18 0 29.5 -11t9.5 -26q-15 -101 -95.5 -171t-181.5 -70q-88 0 -146.5 51t-70.5 139q-58 -92 -150.5 -144t-197.5 -52q-191 0 -269.5 98t-49.5 299l55 401q7 49 -16.5 79t-69.5 30z" />
    <glyph glyph-name="Uring" unicode="&#x16e;" horiz-adv-x="1560" 
d="M1020 1710q-90 0 -120 68q-25 59 9 122q39 72 123 83q13 2 27 2q91 0 121 -68q26 -59 -9 -122q-39 -72 -124 -83q-13 -2 -27 -2zM1057 1968q-35 0 -57 -60t-16.5 -120.5t38.5 -61.5q36 -2 60 58.5t18 122t-43 61.5zM539 608q-35 -254 40 -390t252 -136q206 0 347.5 141.5
t173.5 380.5l114 828q7 47 -18 76.5t-72 29.5q-13 0 -15.5 24.5t5 49t18.5 24.5h357q11 0 12 -24.5t-7.5 -49t-21.5 -24.5q-50 0 -89.5 -31t-45.5 -75l-121 -865q-47 -277 -227 -433t-455 -157q-379 -3 -510 256q-72 139 -38 418l108 779q7 49 -16.5 78.5t-69.5 29.5
q-13 0 -15.5 24.5t5 49t18.5 24.5h520q11 0 12.5 -24.5t-7 -49t-21.5 -24.5q-46 0 -79 -29.5t-40 -78.5z" />
    <glyph glyph-name="uring" unicode="&#x16f;" horiz-adv-x="1347" 
d="M856 1300q-90 0 -120 68q-25 59 9 122q39 72 123 83q13 2 27 2q91 0 121 -68q26 -59 -9 -122q-39 -72 -124 -83q-13 -2 -27 -2zM893 1559q-35 0 -57 -60t-16.5 -120.5t38.5 -61.5q36 -2 60 58.5t18 122t-43 61.5zM168 887q-13 0 -16 23t4.5 47t21.5 28q124 37 206 68.5
t194 89.5h34l-108 -776q-14 -102 28 -165t123 -63q83 1 147.5 67t78.5 161l57 411q7 49 -16.5 79t-69.5 30q-13 0 -16 23t4.5 47t21.5 28q124 37 206 68.5t194 89.5h34l-110 -793q0 -3 -2.5 -17.5t-4.5 -27t-3.5 -30.5t-1 -31.5t3.5 -26.5t10 -20t18 -7q26 0 45.5 18.5
t36 37t33.5 18.5q18 0 29.5 -11t9.5 -26q-15 -101 -95.5 -171t-181.5 -70q-88 0 -146.5 51t-70.5 139q-58 -92 -150.5 -144t-197.5 -52q-191 0 -269.5 98t-49.5 299l55 401q7 49 -16.5 79t-69.5 30z" />
    <glyph glyph-name="Uhungarumlaut" unicode="&#x170;" horiz-adv-x="1560" 
d="M1042 1878l-268 -141q-22 -10 -35.5 -1.5t-13.5 28.5t16 32l236 184q17 16 43.5 -6t34 -51t-12.5 -45zM1335 1878l-268 -141q-22 -10 -35.5 -1.5t-13.5 28.5t16 32l236 184q17 16 43.5 -6t34 -51t-12.5 -45zM539 608q-35 -254 40 -390t252 -136q206 0 347.5 141.5
t173.5 380.5l114 828q7 47 -18 76.5t-72 29.5q-13 0 -15.5 24.5t5 49t18.5 24.5h357q11 0 12 -24.5t-7.5 -49t-21.5 -24.5q-50 0 -89.5 -31t-45.5 -75l-121 -865q-47 -277 -227 -433t-455 -157q-379 -3 -510 256q-72 139 -38 418l108 779q7 49 -16.5 78.5t-69.5 29.5
q-13 0 -15.5 24.5t5 49t18.5 24.5h520q11 0 12.5 -24.5t-7 -49t-21.5 -24.5q-46 0 -79 -29.5t-40 -78.5z" />
    <glyph glyph-name="uhungarumlaut" unicode="&#x171;" horiz-adv-x="1347" 
d="M879 1468l-269 -141q-22 -10 -36 -1.5t-13.5 28.5t17.5 32l235 185q17 16 43.5 -6.5t34 -51.5t-11.5 -45zM1171 1468l-268 -141q-33 -18 -46.5 11t13.5 48l236 185q17 16 43 -6.5t33.5 -51.5t-11.5 -45zM168 887q-13 0 -16 23t4.5 47t21.5 28q115 31 198.5 64t201.5 94
h34l-108 -776q-14 -102 28 -165t123 -63q83 1 147.5 67t78.5 161l57 411q7 49 -16.5 79t-69.5 30q-13 0 -16 23t4.5 47t21.5 28q115 31 198.5 64t201.5 94h34l-110 -793q0 -3 -2.5 -17.5t-4.5 -27t-3.5 -30.5t-1 -31.5t3.5 -26.5t10 -20t18 -7q26 0 45.5 18.5t36 37
t33.5 18.5q18 0 29.5 -11t9.5 -26q-15 -101 -95.5 -171t-181.5 -70q-88 0 -146.5 51t-70.5 139q-58 -92 -150.5 -144t-197.5 -52q-191 0 -269.5 98t-49.5 299l55 401q7 49 -16.5 79t-69.5 30z" />
    <glyph glyph-name="Uogonek" unicode="&#x172;" horiz-adv-x="1560" 
d="M653 1430l-114 -822q-35 -254 40 -390t252 -136q206 0 347.5 141.5t173.5 380.5l114 828q6 46 -19 76t-71 30q-13 0 -15.5 24.5t5 49t18.5 24.5h357q11 0 12 -24.5t-7.5 -49t-21.5 -24.5q-50 0 -89.5 -31t-45.5 -75l-121 -865q-47 -272 -221.5 -427.5t-439.5 -162.5
q-105 -56 -150 -184q-39 -109 -11 -195q25 -77 91 -77q57 0 93 35.5t47 101.5q3 23 27 36t54 13t50.5 -12.5t17.5 -34.5q-12 -85 -92 -134.5t-203 -49.5q-68 0 -119 26.5t-77 69.5t-31 98t13 110.5t62 109.5t109 92q-295 26 -412 251q-72 139 -38 418l108 779
q7 49 -16.5 78.5t-69.5 29.5q-13 0 -15.5 24.5t5 49t18.5 24.5h520q11 0 12.5 -24.5t-7 -49t-21.5 -24.5q-46 0 -79 -29.5t-40 -78.5z" />
    <glyph glyph-name="uogonek" unicode="&#x173;" horiz-adv-x="1347" 
d="M168 887q-13 0 -16 23t4.5 47t21.5 28q115 31 198.5 64t201.5 94h34l-108 -776q-14 -102 28 -165t123 -63q83 1 147.5 67t78.5 161l57 411q7 49 -16.5 79t-69.5 30q-13 0 -16 23t4.5 47t21.5 28q115 31 198.5 64t201.5 94h34l-110 -793q0 -3 -2.5 -17.5t-4.5 -27
t-3.5 -30.5t-1 -31.5t3.5 -26.5t10 -20t18 -7q26 0 45.5 18.5t36 37t33.5 18.5q18 0 29.5 -11t9.5 -26q-15 -104 -96.5 -172.5t-186.5 -68.5q-105 -48 -155.5 -162.5t-28.5 -208.5t98 -94q57 0 92.5 35.5t46.5 101.5q3 23 27.5 36t54.5 13t50.5 -12.5t17.5 -34.5
q-12 -85 -92 -134.5t-203 -49.5q-64 0 -113 22t-74.5 59.5t-37 84.5t0.5 99t38 101t75 92.5t111 71.5q-104 46 -119 170q-58 -92 -150.5 -144t-197.5 -52q-191 0 -269.5 98t-49.5 299l55 401q7 49 -16.5 79t-69.5 30z" />
    <glyph glyph-name="Wcircumflex" unicode="&#x174;" horiz-adv-x="2304" 
d="M1145 1776l209 200h155l152 -200q14 -20 6.5 -36t-25.5 -16q-12 0 -26 11l-197 159l-241 -159q-32 -22 -47 -4.5t14 45.5zM2333 1436l-650 -1381q-15 -31 -27.5 -43t-31.5 -12h-205l-135 989l-364 -934q-23 -55 -60 -55h-205l-278 1436q-20 102 -107 102q-13 0 -15 24.5
t5.5 49t18.5 24.5h573q11 0 12.5 -24.5t-7 -49t-21.5 -24.5q-54 0 -93 -35.5t-30 -75.5l209 -1067l333 836l-32 240q-15 102 -107 102q-13 0 -15.5 24.5t5 49t18.5 24.5h574q11 0 12 -24.5t-7.5 -49t-21.5 -24.5q-54 0 -92.5 -35.5t-29.5 -75.5l137 -1089l514 1094
q22 38 -7 72t-83 34q-13 0 -15.5 24.5t5 49t18.5 24.5h356q11 0 12.5 -24.5t-7 -49t-21.5 -24.5q-43 0 -74.5 -23.5t-60.5 -78.5z" />
    <glyph glyph-name="wcircumflex" unicode="&#x175;" horiz-adv-x="1861" 
d="M866 1366l209 201h156l151 -201q14 -20 7 -35.5t-25 -15.5q-14 0 -27 10l-196 160l-242 -160q-32 -22 -47 -4.5t14 45.5zM1047 1143h245l115 -803l260 506q41 80 27.5 134t-76.5 62q-13 0 -15.5 25t5 49.5t18.5 24.5h356q11 0 12.5 -24.5t-7 -49.5t-21.5 -25
q-34 -3 -68.5 -32.5t-60.5 -75.5l-500 -934h-217l-92 737l-254 -737h-235l-252 934q-12 44 -39 74.5t-58 33.5q-13 0 -15 25t5.5 49.5t18.5 24.5h520q11 0 12 -24.5t-7.5 -49.5t-21.5 -25q-72 -6 -53 -108l127 -608z" />
    <glyph glyph-name="Ycircumflex" unicode="&#x176;" horiz-adv-x="1499" 
d="M741 1776l209 200h156l151 -200q14 -20 7 -36t-25 -16q-13 0 -27 11l-196 159l-242 -159q-32 -22 -47 -4.5t14 45.5zM623 207l53 371l-324 858q-19 48 -43 75t-49 27q-13 0 -15.5 24.5t5 49t18.5 24.5h574q11 0 12 -24.5t-7.5 -49t-21.5 -24.5q-54 0 -93 -35.5t-30 -75.5
l246 -700l469 705q22 38 -8 72t-84 34q-13 0 -15.5 24.5t5 49t18.5 24.5h357q11 0 12 -24.5t-7.5 -49t-21.5 -24.5q-26 0 -74 -39t-73 -80l-539 -807l-57 -405q-6 -49 18 -79t70 -30q13 0 15 -24.5t-6 -49t-19 -24.5h-521q-11 0 -11.5 24.5t8.5 49t22 24.5q46 0 78.5 30
t38.5 79z" />
    <glyph glyph-name="ycircumflex" unicode="&#x177;" horiz-adv-x="1288" 
d="M578 1366l208 201h156l152 -201q14 -20 6.5 -35.5t-25.5 -15.5q-13 0 -26 10l-197 160l-242 -160q-32 -22 -46.5 -4.5t14.5 45.5zM475 0l-190 936q-7 41 -36 72t-63 34q-13 0 -14.5 25t7.5 50.5t22 25.5h520q13 0 15 -25.5t-6 -50.5t-21 -25q-36 -3 -52 -30.5t-10 -75.5
l115 -766l332 678q41 82 27 136t-77 60q-14 0 -16.5 25t6 49.5t21.5 24.5h350q13 0 15.5 -24.5t-5 -49.5t-20.5 -25q-35 -3 -71.5 -33t-59.5 -75q-47 -91 -217 -427t-263 -509q-34 -246 -177 -382t-367 -136q-141 0 -233 66.5t-79 158.5q7 52 59 81.5t117 29.5
q64 0 106.5 -27.5t35.5 -77.5q-6 -53 16 -89t60 -36q54 0 101 46.5t70.5 110.5t21 136t-39.5 119z" />
    <glyph glyph-name="Ydieresis" unicode="&#x178;" horiz-adv-x="1499" 
d="M836 1749q-81 0 -105 61q-22 53 12 107q41 65 125 65q81 0 105 -61q22 -53 -12 -107q-41 -65 -125 -65zM1155 1749q-80 0 -104 61q-21 54 14 108q41 64 123 64q81 0 105 -61q21 -53 -13 -107q-41 -65 -125 -65zM623 207l53 371l-324 858q-20 50 -44 76t-48 26
q-13 0 -15.5 24.5t5 49t18.5 24.5h574q11 0 12 -24.5t-7.5 -49t-21.5 -24.5q-56 0 -94 -37t-29 -74l246 -700l469 705q20 37 -7.5 71.5t-84.5 34.5q-13 0 -15.5 24.5t5 49t18.5 24.5h357q11 0 12 -24.5t-7.5 -49t-21.5 -24.5q-32 0 -78.5 -42t-68.5 -77l-539 -807l-57 -405
q-5 -43 15 -76t73 -33q13 0 15 -24.5t-6 -49t-19 -24.5h-521q-11 0 -11.5 24.5t8.5 49t22 24.5q53 0 82.5 33.5t34.5 75.5z" />
    <glyph glyph-name="Zacute" unicode="&#x179;" horiz-adv-x="1427" 
d="M1122 1878l-268 -141q-22 -10 -35.5 -1.5t-13.5 28.5t16 32l236 184q17 16 43.5 -6t34 -51t-12.5 -45zM621 102h305q22 0 49 8.5t53 22t55.5 34t55.5 41t54 46t49.5 46t45 44.5t36.5 38t27 29.5t15 16.5q14 14 39 14q31 0 47.5 -21.5t-0.5 -58.5l-178 -339l-31 -23h-1190
q-14 0 -22 13t0 37.5t35 49.5l1013 1330q6 47 -18 75.5t-70 28.5h-221q-22 0 -49 -8.5t-53 -22t-56 -34t-55.5 -41t-54.5 -46t-50 -46t-45 -45t-36.5 -37.5t-27.5 -30l-15 -16q-14 -14 -39 -14q-31 0 -48 23t1 57l180 340l29 22h1110q12 0 19 -11t7 -26q-6 -37 -39 -63
l-1016 -1327q-6 -47 18.5 -77t70.5 -30z" />
    <glyph glyph-name="zacute" unicode="&#x17a;" horiz-adv-x="1181" 
d="M944 1468l-268 -141q-33 -18 -46.5 11t13.5 48l236 185q17 16 43 -6.5t33.5 -51.5t-11.5 -45zM1128 379q10 8 30 1t37.5 -24t10.5 -26l-153 -307l-31 -23h-969q-14 0 -22 13t0 37.5t35 49.5l735 844q28 38 19 70.5t-50 36.5h-117q-68 0 -178.5 -81t-200.5 -196
q-10 -9 -30 -2t-37 24t-10 27l155 305l31 23l408 2h495q12 0 19.5 -11t7.5 -26q-6 -37 -39 -63l-739 -846q-28 -38 -19.5 -70.5t49.5 -36.5h187q69 0 178 81t198 198z" />
    <glyph glyph-name="Zdotaccent" unicode="&#x17b;" horiz-adv-x="1427" 
d="M954 1718q-90 0 -120 68q-25 59 9 122q39 72 123 83q13 2 27 2q91 0 121 -68q26 -59 -9 -122q-39 -72 -124 -83q-13 -2 -27 -2zM621 102h305q22 0 49 8.5t53 22t55.5 34t55.5 41t54 46t49.5 46t45 44.5t36.5 38t27 29.5t15 16.5q14 14 39 14q31 0 47.5 -21.5t-0.5 -58.5
l-178 -339l-31 -23h-1190q-14 0 -22 13t0 37.5t35 49.5l1013 1330q6 47 -18 75.5t-70 28.5h-221q-22 0 -49 -8.5t-53 -22t-56 -34t-55.5 -41t-54.5 -46t-50 -46t-45 -45t-36.5 -37.5t-27.5 -30l-15 -16q-14 -14 -39 -14q-31 0 -48 23t1 57l180 340l29 22h1110q12 0 19 -11
t7 -26q-6 -37 -39 -63l-1016 -1327q-6 -47 18.5 -77t70.5 -30z" />
    <glyph glyph-name="zdotaccent" unicode="&#x17c;" horiz-adv-x="1181" 
d="M776 1309q-91 0 -120 68q-25 59 10 122q39 72 124 82q12 2 25 2q92 0 121 -68q26 -59 -9 -122q-40 -72 -126 -82q-12 -2 -25 -2zM1128 379q10 8 30 1t37.5 -24t10.5 -26l-153 -307l-31 -23h-969q-14 0 -22 13t0 37.5t35 49.5l735 844q28 38 19 70.5t-50 36.5h-117
q-68 0 -178.5 -81t-200.5 -196q-10 -9 -30 -2t-37 24t-10 27l155 305l31 23l408 2h495q12 0 19.5 -11t7.5 -26q-6 -37 -39 -63l-739 -846q-28 -38 -19.5 -70.5t49.5 -36.5h187q69 0 178 81t198 198z" />
    <glyph glyph-name="Zcaron" unicode="&#x17d;" horiz-adv-x="1427" 
d="M881 1735l-152 200q-14 20 -7.5 36t26.5 16q12 0 26 -11l197 -159l241 159q32 22 46.5 4.5t-13.5 -45.5l-209 -200h-155zM621 102h305q22 0 49 8.5t53 22t55.5 34t55.5 41t54 46t49.5 46t45 44.5t36.5 38t27 29.5t15 16.5q14 14 39 14q31 0 47.5 -21.5t-0.5 -58.5
l-178 -339l-31 -23h-1190q-14 0 -22 13t0 37.5t35 49.5l1013 1330q6 47 -18 75.5t-70 28.5h-221q-22 0 -49 -8.5t-53 -22t-56 -34t-55.5 -41t-54.5 -46t-50 -46t-45 -45t-36.5 -37.5t-27.5 -30l-15 -16q-14 -14 -39 -14q-31 0 -48 23t1 57l180 340l29 22h1110q12 0 19 -11
t7 -26q-6 -37 -39 -63l-1016 -1327q-6 -47 18.5 -77t70.5 -30z" />
    <glyph glyph-name="zcaron" unicode="&#x17e;" horiz-adv-x="1181" 
d="M700 1325l-151 201q-14 20 -8 35.5t24 15.5q17 0 29 -10l197 -160l241 160q31 22 46 4.5t-13 -45.5l-209 -201h-156zM1128 379q10 8 30 1t37.5 -24t10.5 -26l-153 -307l-31 -23h-969q-14 0 -22 13t0 37.5t35 49.5l735 844q27 37 19 70t-50 37h-117q-43 0 -95 -24.5
t-94 -58t-85 -76t-66 -70t-39 -48.5q-10 -9 -30 -2t-37 24t-10 27l155 305l31 23l408 2h495q11 0 19 -10t8 -27q-8 -34 -39 -63l-739 -846q-27 -37 -19.5 -70t49.5 -37h187q43 0 94.5 25t93.5 58.5t84.5 77t64.5 70t39 48.5z" />
    <glyph glyph-name="longs" unicode="&#x17f;" horiz-adv-x="1320" 
d="M270 1604q-9 8 -2.5 20t19.5 12h1069l24 -22l82 -340q8 -34 -15 -57t-52 -23q-27 0 -35 14q-10 16 -29.5 42.5t-59 71.5t-80 81.5t-91.5 64t-94 27.5h-342q-3 -25 -46 -315l-92 -658q-19 -129 -45 -315q-5 -43 15 -76t73 -33q13 0 15 -24.5t-6 -49t-19 -24.5h-520
q-11 0 -12 24.5t8 49t22 24.5q53 0 82.5 33.5t34.5 75.5l186 1329z" />
    <glyph glyph-name="florin" unicode="&#x192;" horiz-adv-x="1417" 
d="M1288 1683q137 0 230.5 -65t80.5 -160q-7 -52 -59 -81t-117 -29q-64 0 -106 27t-35 77q7 56 -13 91.5t-52 35.5q-30 0 -58.5 -31.5t-46.5 -95.5q-15 -49 -28.5 -127.5t-20.5 -143.5t-20 -187.5t-21 -188.5h154q22 0 29 -25.5t-5.5 -51.5t-38.5 -26h-149
q-13 -105 -25.5 -192t-32 -189.5t-42 -186t-54 -171.5t-68.5 -156t-86 -130t-105.5 -103t-127.5 -65.5t-152 -26.5q-84 -1 -162.5 29t-129.5 95.5t-39 151.5q11 77 67.5 121.5t124.5 44.5q54 0 93.5 -31t43.5 -88q-32 -28 -40 -81t14 -96t65 -42q36 1 64.5 34t50 96.5
t37.5 139t31.5 182.5t28 205t30.5 227.5t35 231.5h-174q-26 0 -31.5 26t9 51.5t36.5 25.5h178q24 123 52 226.5t67 206.5t89 180.5t112 139t142.5 93.5t174.5 32z" />
    <glyph glyph-name="uni0218" unicode="&#x218;" horiz-adv-x="1282" 
d="M1317 399q-26 -186 -205 -302.5t-438 -116.5q-292 2 -453 153.5t-127 392.5q7 50 63.5 77.5t129.5 27.5t123 -29.5t43 -81.5v-2q-18 -110 -5.5 -188.5t51.5 -128.5t90 -73.5t111 -23.5q105 0 192 66t101 172q8 54 -14.5 104t-66.5 92t-103 84t-125 84t-131.5 86
t-123.5 96.5t-100 109.5t-61.5 130t-7.5 154q25 173 190 285t398 112q172 1 303 -57.5t195.5 -163t46.5 -233.5q-7 -50 -67 -77.5t-136 -27.5q-77 0 -130 29.5t-46 81.5l2 2q27 110 4 181.5t-71 105.5t-113 34q-89 0 -164.5 -62t-89.5 -165q-7 -50 16 -98t67 -89
t103.5 -82.5t125.5 -83.5t131.5 -86.5t123 -97t99.5 -109.5t61.5 -129.5t7.5 -152.5zM481 -489q27 25 72 87q57 80 25 80q-35 0 -59.5 30.5t-18.5 68.5q7 54 42.5 88.5t82.5 34.5q49 0 76.5 -32.5t19.5 -82.5q-9 -66 -75.5 -170.5t-123.5 -142.5q-23 -14 -38.5 1t-2.5 38z
" />
    <glyph glyph-name="uni0219" unicode="&#x219;" horiz-adv-x="933" 
d="M664 238q6 41 -20.5 81.5t-72.5 76.5t-103 73t-113 78t-101.5 84t-69.5 98.5t-16 114.5q22 157 149.5 248.5t327.5 91.5q168 0 285 -89t100 -204q-7 -50 -57 -77.5t-115 -27.5t-108 29.5t-35 81.5q24 91 -10.5 137.5t-98.5 46.5q-58 0 -107.5 -33t-56.5 -85
q-7 -38 20.5 -76.5t76.5 -73.5t110 -72.5t121.5 -81t109 -91t74 -111t15.5 -133.5q-20 -149 -166.5 -246.5t-347.5 -97.5q-183 0 -300.5 104.5t-97.5 249.5q7 50 57 77t115 27t108.5 -29t35.5 -81q-33 -118 7 -182t114 -64q60 0 110 42t60 114zM307 -489q27 25 71 87
q57 80 25 80q-35 0 -59 30.5t-18 68.5q7 54 42.5 88.5t82.5 34.5q49 0 76.5 -32.5t19.5 -82.5q-9 -66 -75.5 -170.5t-123.5 -142.5q-23 -14 -38.5 1t-2.5 38z" />
    <glyph glyph-name="uni021A" unicode="&#x21a;" horiz-adv-x="1548" 
d="M395 1614l29 22h1159l25 -22l82 -340q8 -34 -15 -57t-53 -23q-27 0 -35 14q-72 111 -117 166q-133 162 -233 162h-94l-187 -1329q-6 -49 18 -79t70 -30q13 0 15 -24.5t-6 -49t-19 -24.5h-520q-11 0 -12 24.5t8 49t22 24.5q46 0 78.5 30t38.5 79l187 1329h-95
q-25 0 -54.5 -10t-60 -28t-61 -39.5t-62 -49.5t-57.5 -51.5t-53 -51t-42.5 -44t-32.5 -35t-17 -19.5q-14 -14 -39 -14q-31 0 -48 23t1 57zM614 -489q27 25 72 87q57 80 25 80q-35 0 -59.5 30.5t-18.5 68.5q7 54 42.5 88.5t82.5 34.5q49 0 76.5 -32.5t19.5 -82.5
q-9 -66 -75.5 -170.5t-123.5 -142.5q-23 -14 -38.5 1t-2.5 38z" />
    <glyph glyph-name="uni021B" unicode="&#x21b;" horiz-adv-x="722" 
d="M745 227q-40 -118 -132 -180.5t-226 -60.5q-115 1 -174.5 82.5t-40.5 210.5l98 696h-102q-13 0 -15 20.5t7 41t24 20.5q75 0 194 129.5t243 347.5h34l-65 -477h172q18 0 23 -20.5t-6 -41t-29 -20.5h-172l-89 -625q-12 -83 6.5 -122.5t69.5 -39.5q28 0 50.5 12t35 26
t27.5 26t29 12q18 0 29 -11t9 -26zM203 -489q27 25 71 87q57 80 25 80q-35 0 -59.5 30.5t-18.5 68.5q7 54 42.5 88.5t82.5 34.5q49 0 76.5 -32.5t19.5 -82.5q-9 -66 -75 -170.5t-123 -142.5q-23 -14 -38.5 1t-2.5 38z" />
    <glyph glyph-name="uni0237" unicode="&#x237;" horiz-adv-x="473" 
d="M463 1536q78 0 125.5 -44t38.5 -110q-9 -63 -68 -106t-137 -43q-82 0 -128.5 42t-37.5 107q7 61 69.5 107.5t137.5 46.5zM-403 -293q7 52 59 81.5t117 29.5t106.5 -27.5t34.5 -77.5q-6 -53 16 -89t60 -36q55 0 102 46.5t70.5 111t21 136t-38.5 118.5l109 778
q7 49 -16.5 79t-69.5 30q-13 0 -16 23t4.5 47t21.5 28q115 31 198.5 64t201.5 94h34l-159 -1143q-34 -246 -177.5 -382t-367.5 -136q-140 0 -232 66.5t-79 158.5z" />
    <glyph glyph-name="circumflex" unicode="&#x2c6;" horiz-adv-x="585" 
d="M227 1366l209 201h156l151 -201q14 -20 7 -35.5t-25 -15.5q-15 0 -27 10l-196 160l-242 -160q-32 -22 -47 -4.5t14 45.5z" />
    <glyph glyph-name="caron" unicode="&#x2c7;" horiz-adv-x="585" 
d="M401 1325l-151 201q-14 20 -8 35.5t24 15.5q16 0 29 -10l197 -160l241 160q31 22 46 4.5t-13 -45.5l-209 -201h-156z" />
    <glyph glyph-name="uni02C9" unicode="&#x2c9;" horiz-adv-x="622" 
d="M760 1456h-488q-34 0 -37 36q-4 36 22 61q14 14 32 14h487q27 0 35.5 -27.5t-6.5 -55.5t-45 -28z" />
    <glyph glyph-name="breve" unicode="&#x2d8;" horiz-adv-x="630" 
d="M797 1493q-141 -162 -293 -162q-74 0 -139.5 41.5t-112.5 120.5q-22 38 -9 64t40 26q18 0 28 -16q30 -52 86.5 -79.5t124.5 -27.5t132.5 27.5t107.5 79.5q20 25 45 12q26 -12 16 -46q-6 -19 -26 -40z" />
    <glyph glyph-name="dotaccent" unicode="&#x2d9;" horiz-adv-x="337" 
d="M352 1309q-91 0 -120 68q-25 59 10 122q39 72 124 82q12 2 25 2q92 0 121 -68q26 -59 -9 -122q-40 -72 -126 -82q-12 -2 -25 -2z" />
    <glyph glyph-name="ring" unicode="&#x2da;" horiz-adv-x="337" 
d="M350 1300q-90 0 -120 68q-25 59 9 122q39 72 123 83q13 2 27 2q91 0 121 -68q26 -59 -9 -122q-39 -72 -124 -83q-13 -2 -27 -2zM387 1559q-35 0 -57 -60t-16.5 -120.5t38.5 -61.5q36 -2 60 58.5t18 122t-43 61.5z" />
    <glyph glyph-name="ogonek" unicode="&#x2db;" horiz-adv-x="571" 
d="M432 49l-4 -37q-156 0 -247 -128q-67 -96 -67 -211q0 -101 53 -138q21 -14 48 -14q57 0 92.5 35.5t46.5 101.5q3 23 27.5 36t54.5 13t50.5 -12.5t17.5 -34.5q-12 -85 -92 -134.5t-203 -49.5q-140 0 -199 97q-52 86 -17 200q39 124 157 200t282 76z" />
    <glyph glyph-name="tilde" unicode="&#x2dc;" horiz-adv-x="657" 
d="M821 1475q-93 -109 -186 -109q-51 0 -135 43t-121 43q-51 0 -92 -49q-21 -25 -46 -12q-26 12 -16 46q5 19 25 40q72 92 158 92q47 0 134 -41t128 -41q61 0 114 61q20 24 46 13t18 -43q-5 -20 -27 -43z" />
    <glyph glyph-name="hungarumlaut" unicode="&#x2dd;" horiz-adv-x="649" 
d="M530 1468l-268 -141q-33 -18 -46.5 11t13.5 48l236 185q17 16 43 -6.5t33.5 -51.5t-11.5 -45zM823 1468l-268 -141q-33 -18 -46.5 11t13.5 48l236 185q17 16 43 -6.5t33.5 -51.5t-11.5 -45z" />
    <glyph glyph-name="uni0394" unicode="&#x394;" horiz-adv-x="1374" 
d="M1354 0h-1334l781 1636h231zM762 1303l-578 -1205h820z" />
    <glyph glyph-name="uni03A9" unicode="&#x3a9;" horiz-adv-x="1435" 
d="M623 113l-17 -113h-532q-30 0 -37 28t9.5 56.5t43.5 28.5h260q-95 79 -151 191.5t-70.5 236t4.5 258t67.5 260t125.5 239t171.5 198t213 134t243.5 49.5q124 0 228.5 -50t175 -134t115 -198t57.5 -239.5t-6 -260t-68 -258t-136.5 -236t-203.5 -190.5h260q27 0 35.5 -28
t-6.5 -56.5t-45 -28.5h-533l17 113q115 54 207.5 222.5t131 374.5t36.5 403.5t-76 330.5t-205 133q-110 0 -206 -95.5t-157.5 -242.5t-95.5 -324.5t-31.5 -339t47 -289.5t128.5 -173z" />
    <glyph glyph-name="pi" unicode="&#x3c0;" horiz-adv-x="1161" 
d="M113 635q38 104 137.5 165.5t247.5 61.5h716q27 0 34.5 -38t-8.5 -76.5t-46 -38.5h-223l-348 -689q-14 -26 -48 -26q-29 0 -47 19t-4 46l328 650h-234l-348 -689q-14 -26 -47 -26q-29 0 -47 19t-4 46l328 650h-70q-191 6 -242 -88q-20 -33 -49 -33q-18 0 -26 12t0 35z
" />
    <glyph glyph-name="Wgrave" unicode="&#x1e80;" horiz-adv-x="2304" 
d="M1499 1735l-227 141q-16 16 -0.5 45t48 51t46.5 6l182 -184q21 -19 -0.5 -48t-48.5 -11zM2333 1436l-650 -1381q-15 -31 -27.5 -43t-31.5 -12h-205l-135 989l-364 -934q-23 -55 -60 -55h-205l-278 1436q-20 102 -107 102q-13 0 -15 24.5t5.5 49t18.5 24.5h573
q11 0 12.5 -24.5t-7 -49t-21.5 -24.5q-54 0 -93 -35.5t-30 -75.5l209 -1067l333 836l-32 240q-15 102 -107 102q-13 0 -15.5 24.5t5 49t18.5 24.5h574q11 0 12 -24.5t-7.5 -49t-21.5 -24.5q-54 0 -92.5 -35.5t-29.5 -75.5l137 -1089l514 1094q22 38 -7 72t-83 34
q-13 0 -15.5 24.5t5 49t18.5 24.5h356q11 0 12.5 -24.5t-7 -49t-21.5 -24.5q-43 0 -74.5 -23.5t-60.5 -78.5z" />
    <glyph glyph-name="wgrave" unicode="&#x1e81;" horiz-adv-x="1861" 
d="M1221 1325l-228 141q-16 16 -0.5 45t48 51.5t46.5 6.5l183 -185q21 -19 -0.5 -48t-48.5 -11zM1047 1143h245l115 -803l260 506q41 80 27.5 134t-76.5 62q-13 0 -15.5 25t5 49.5t18.5 24.5h356q11 0 12.5 -24.5t-7 -49.5t-21.5 -25q-34 -3 -68.5 -32.5t-60.5 -75.5
l-500 -934h-217l-92 737l-254 -737h-235l-252 934q-12 44 -39 74.5t-58 33.5q-13 0 -15 25t5.5 49.5t18.5 24.5h520q11 0 12 -24.5t-7.5 -49.5t-21.5 -25q-72 -6 -53 -108l127 -608z" />
    <glyph glyph-name="Wacute" unicode="&#x1e82;" horiz-adv-x="2304" 
d="M1561 1878l-269 -141q-22 -10 -35.5 -1.5t-13 28.5t16.5 32l235 184q17 16 44 -6t34 -51t-12 -45zM2333 1436l-650 -1381q-12 -28 -24.5 -41.5t-34.5 -13.5h-205l-135 989l-364 -934q-20 -55 -60 -55h-205l-278 1436q-21 102 -107 102q-13 0 -15 24.5t5.5 49t18.5 24.5
h573q11 0 12.5 -24.5t-7 -49t-21.5 -24.5q-56 0 -94 -37t-29 -74l209 -1067l333 836l-32 240q-15 102 -107 102q-13 0 -15.5 24.5t5 49t18.5 24.5h574q11 0 12 -24.5t-7.5 -49t-21.5 -24.5q-56 0 -93.5 -37t-28.5 -74l137 -1089l514 1094q20 37 -7 71.5t-83 34.5
q-13 0 -15.5 24.5t5 49t18.5 24.5h356q11 0 12.5 -24.5t-7 -49t-21.5 -24.5q-48 0 -79 -26.5t-56 -75.5z" />
    <glyph glyph-name="wacute" unicode="&#x1e83;" horiz-adv-x="1861" 
d="M1282 1468l-268 -141q-33 -18 -46.5 11t13.5 48l236 185q17 16 43 -6.5t33.5 -51.5t-11.5 -45zM1047 1143h245l115 -803l260 506q41 80 27.5 134t-76.5 62q-13 0 -15.5 25t5 49.5t18.5 24.5h356q11 0 12.5 -24.5t-7 -49.5t-21.5 -25q-34 -3 -68.5 -32.5t-60.5 -75.5
l-500 -934h-217l-92 737l-254 -737h-235l-252 934q-12 44 -39 74.5t-58 33.5q-13 0 -15 25t5.5 49.5t18.5 24.5h520q11 0 12 -24.5t-7.5 -49.5t-21.5 -25q-72 -6 -53 -108l127 -608z" />
    <glyph glyph-name="Wdieresis" unicode="&#x1e84;" horiz-adv-x="2304" 
d="M1239 1749q-81 0 -105 61q-21 53 13 107q41 65 125 65q81 0 105 -61q21 -53 -13 -107q-41 -65 -125 -65zM1559 1749q-80 0 -104 61q-21 54 14 108q40 64 122 64q81 0 105 -61q22 -53 -12 -107q-41 -65 -125 -65zM2333 1436l-650 -1381q-15 -31 -27.5 -43t-31.5 -12h-205
l-135 989l-364 -934q-23 -55 -60 -55h-205l-278 1436q-20 102 -107 102q-13 0 -15 24.5t5.5 49t18.5 24.5h573q11 0 12.5 -24.5t-7 -49t-21.5 -24.5q-54 0 -93 -35.5t-30 -75.5l209 -1067l333 836l-32 240q-15 102 -107 102q-13 0 -15.5 24.5t5 49t18.5 24.5h574
q11 0 12 -24.5t-7.5 -49t-21.5 -24.5q-54 0 -92.5 -35.5t-29.5 -75.5l137 -1089l514 1094q22 38 -7 72t-83 34q-13 0 -15.5 24.5t5 49t18.5 24.5h356q11 0 12.5 -24.5t-7 -49t-21.5 -24.5q-43 0 -74.5 -23.5t-60.5 -78.5z" />
    <glyph glyph-name="wdieresis" unicode="&#x1e85;" horiz-adv-x="1861" 
d="M1022 1339q-80 0 -105 61q-21 53 13 108q42 65 125 65q80 0 105 -61q21 -53 -13 -108q-42 -65 -125 -65zM1341 1339q-79 0 -103 61q-22 53 13 108q41 65 123 65q80 0 105 -61q21 -53 -13 -108q-42 -65 -125 -65zM1047 1143h245l115 -803l260 506q26 51 31.5 89.5t-7.5 60
t-31.5 32.5t-41.5 14q-13 0 -15.5 25t5 49.5t18.5 24.5h356q11 0 12.5 -24.5t-7 -49.5t-21.5 -25q-40 -4 -74 -36t-55 -72l-500 -934h-217l-92 737l-254 -737h-235l-252 934q-9 38 -34.5 71t-62.5 37q-13 0 -15 25t5.5 49.5t18.5 24.5h520q11 0 12 -24.5t-7.5 -49.5
t-21.5 -25q-74 -7 -53 -108l127 -608z" />
    <glyph glyph-name="endash" unicode="&#x2013;" horiz-adv-x="1030" 
d="M1044 567h-897q-34 0 -37 37q-4 37 22 62q14 14 32 14l897 4q27 0 35 -29t-7 -58.5t-45 -29.5z" />
    <glyph glyph-name="emdash" unicode="&#x2014;" horiz-adv-x="1714" 
d="M1726 567h-1581q-34 0 -37 37q-4 37 22 62q14 14 32 14h1581q27 0 35 -28t-7 -56.5t-45 -28.5z" />
    <glyph glyph-name="quoteleft" unicode="&#x2018;" horiz-adv-x="235" 
d="M381 1602l12 -334q1 -13 -14 -22.5t-38.5 -14t-49.5 -4.5q-42 0 -70 11t-22 30l98 334q9 36 49 36q35 0 35 -36z" />
    <glyph glyph-name="quoteright" unicode="&#x2019;" horiz-adv-x="241" 
d="M207 1253q32 32 79.5 100t16.5 68q-7 0 -19 3.5t-29 12t-26.5 30.5t-5.5 53q6 49 41 85.5t86 36.5q52 0 77 -34t19 -80q-10 -73 -79.5 -176.5t-120.5 -137.5q-22 -14 -37 1t-2 38z" />
    <glyph glyph-name="quotesinglbase" unicode="&#x201a;" horiz-adv-x="344" 
d="M12 -489q27 25 72 87q57 80 25 80q-35 0 -59.5 30.5t-18.5 68.5q7 54 42.5 88.5t82.5 34.5q49 0 76.5 -32.5t19.5 -82.5q-9 -66 -75.5 -171t-123.5 -142q-23 -14 -38.5 1t-2.5 38z" />
    <glyph glyph-name="quotedblleft" unicode="&#x201c;" horiz-adv-x="544" 
d="M688 1602l12 -334q1 -13 -14 -22.5t-38.5 -14t-49.5 -4.5q-42 0 -70 11t-22 30l98 334q9 36 49 36q35 0 35 -36zM383 1602l12 -334q1 -13 -14 -22.5t-38.5 -14t-49.5 -4.5q-42 0 -70 11t-22 30l98 334q9 36 49 36q35 0 35 -36z" />
    <glyph glyph-name="quotedblright" unicode="&#x201d;" horiz-adv-x="544" 
d="M260 1268l-12 334q0 20 29.5 30t72.5 10t70.5 -10t21.5 -30l-98 -334q-4 -18 -18.5 -27.5t-30.5 -9.5q-35 0 -35 37zM565 1268l-12 334q0 20 29.5 30t72.5 10t71 -10t22 -30l-99 -334q-4 -18 -18.5 -27.5t-30.5 -9.5q-35 0 -35 37z" />
    </font>
</defs>
</svg>
